<?xml version="1.0" standalone="no"?>
<!DOCTYPE svg PUBLIC "-//W3C//DTD SVG 1.1//EN" "http://www.w3.org/Graphics/SVG/1.1/DTD/svg11.dtd" >
<svg xmlns="http://www.w3.org/2000/svg">
<metadata>Generated by IcoMoon</metadata>
<defs>
<font id="icomoon" horiz-adv-x="1024">
<font-face units-per-em="1024" ascent="960" descent="-64" />
<missing-glyph horiz-adv-x="1024" />
<glyph unicode="&#x20;" horiz-adv-x="512" d="" />
<glyph unicode="&#xe900;" glyph-name="Vector-9" d="M394.303 517.221l-362.561 412.386h85.915l314.812-358.068 251.442 358.068h290.003l-380.226-541.464 380.226-432.448h-85.92l-332.45 378.131-265.539-378.131h-290.005l394.303 561.526zM511.982 383.373l345.055 482.945h-131.968l-607.453-850.214h131.969l262.397 367.268z" />
<glyph unicode="&#xe901;" glyph-name="Vector-2" d="M330.625 937.422c-56.921 52.956-103.069 9.574-103.069-96.819v-785.129c0-106.498 46.148-149.824 103.069-96.918l423.115 393.555c56.94 52.974 56.94 138.801 0 191.762l-423.115 393.549z" />
<glyph unicode="&#xe902;" glyph-name="Vector-3" d="M386.641 888.051c-36.024 0.681-64.681-27.971-64-64 0.681-36.024 30.438-65.782 66.463-66.458l358.866-6.774-664.479-664.479c-23.432-23.433-23.432-61.414 0-84.847s61.421-23.433 84.853 0l664.475 664.472 6.774-358.861c0.681-36.029 30.432-65.782 66.46-66.463s64.683 27.976 64 64l-9.574 507.377c-0.683 36.024-30.438 65.782-66.458 66.463l-507.379 9.569z" />
<glyph unicode="&#xe903;" glyph-name="Vector-4" d="M260.865 937.422c-78.814 52.956-142.711 9.574-142.711-96.818v-785.126c0-106.504 63.897-149.827 142.711-96.926l585.851 393.559c78.839 52.975 78.839 138.801 0 191.763l-585.851 393.548z" />
<glyph unicode="&#xe904;" glyph-name="Vector-5" d="M686.831 790.561c-19.632 20.392-51.473 20.395-71.111 0-19.632-20.392-19.632-53.455 0.006-73.844l195.607-203.133-738.311 0.002c-26.035 0-47.14-21.105-47.14-47.14s21.105-47.14 47.14-47.14h738.306l-195.601-203.132c-19.638-20.395-19.638-53.453 0-73.847 19.632-20.389 51.473-20.389 71.111 0l276.554 287.197c19.638 20.392 19.638 53.456 0 73.847l-276.56 287.192z" />
<glyph unicode="&#xe905;" glyph-name="online-analytical-1" d="M30.118 187.483c0-33.129 27.106-60.235 60.235-60.235h260.517v-90.352h-91.858c-9.035 0-15.058-6.023-15.058-15.058s6.023-15.058 15.058-15.058h504.471c9.035 0 15.058 6.023 15.058 15.058s-6.023 15.058-15.058 15.058h-91.858v90.352h262.023c33.129 0 60.235 27.106 60.235 60.235v640c0 33.129-27.106 60.235-60.235 60.235h-843.294c-33.129 0-60.235-27.106-60.235-60.235v-640zM643.012 38.401h-262.023v90.352h260.517v-90.352h1.506zM933.648 157.366c-287.623 0-551.154 0-843.294 0-16.565 0-30.118 13.552-30.118 30.117v78.306h903.529v-78.306c0-16.565-13.552-30.117-30.117-30.117zM90.353 857.601h843.294c16.565 0 30.117-13.553 30.117-30.118v-531.576c-228.894 0-673.129 0-903.529 0v531.576c0 16.565 13.553 30.118 30.118 30.118zM249.975 503.72c79.812 0 144.566 64.752 144.566 144.565s-64.754 144.565-144.566 144.565c-79.811 1.506-144.564-63.246-144.564-144.565 0-79.812 64.753-144.565 144.564-144.565zM365.929 651.297h-97.883l40.66 96.375c33.129-18.069 55.717-54.211 57.223-96.375zM280.094 759.72l-40.658-96.377-69.271 69.271c21.082 19.577 48.188 31.623 79.811 31.623 10.542 0 21.083-1.505 30.118-4.517zM152.094 708.52c9.035-9.035-30.118 30.117 82.823-82.823 3.012-3.012 7.529-4.518 10.542-4.518h115.952c-12.046-49.694-57.223-87.342-111.435-87.342-63.246 0-114.446 51.2-114.446 114.448 0 22.588 6.024 42.165 16.565 60.235zM355.389 454.025h-209.318c-9.035 0-15.059-6.023-15.059-15.058s6.024-15.060 15.059-15.060h209.318c9.035 0 15.058 6.025 15.058 15.060s-6.023 15.058-15.058 15.058zM355.389 374.212h-209.318c-9.035 0-15.059-6.025-15.059-15.060s6.024-15.058 15.059-15.058h209.318c9.035 0 15.058 6.023 15.058 15.058s-6.023 15.060-15.058 15.060zM801.131 232.66h-27.106c-9.035 0-15.060-6.023-15.060-15.058s6.025-15.060 15.060-15.060h27.106c9.034 0 15.058 6.025 15.058 15.060s-7.529 15.058-15.058 15.058zM703.248 232.66h-27.106c-9.034 0-15.058-6.023-15.058-15.058s6.025-15.060 15.058-15.060h27.106c9.035 0 15.060 6.025 15.060 15.060s-6.025 15.058-15.060 15.058zM483.389 621.178c12.046 0 22.588 4.518 30.117 10.542l40.66-30.118c-1.506-4.517-1.506-7.529-1.506-12.046 0-27.106 21.082-48.188 48.188-48.188s48.188 21.082 48.188 48.188c0 9.035-3.011 18.071-7.529 25.6l61.742 75.294c6.023-3.012 12.048-4.517 18.071-4.517 15.058 0 28.612 7.529 37.648 18.069l48.188-15.058v-4.517c0-27.106 21.082-48.189 48.188-48.189s48.189 21.083 48.189 48.189c0 27.106-21.083 48.188-48.189 48.188-15.058 0-27.105-6.023-36.14-16.565l-49.695 15.058v1.506c0 27.106-21.082 48.188-48.188 48.188s-48.188-21.082-48.188-48.188c0-9.035 3.011-16.565 7.529-24.094l-61.742-76.8c-6.023 1.506-10.542 3.012-16.565 3.012-12.048 0-21.083-4.518-30.118-10.542l-40.658 30.117c1.506 4.518 1.506 7.529 1.506 12.048 0 27.106-21.082 48.188-48.188 48.188s-48.189-21.082-48.189-48.188c-1.505-24.094 21.083-45.177 46.683-45.177zM856.848 705.508c10.542 0 18.071-7.529 18.071-18.071 0-10.54-7.529-18.069-18.071-18.069s-18.071 7.529-18.071 18.069c0 10.542 7.529 18.071 18.071 18.071zM722.825 753.697c10.542 0 18.071-7.529 18.071-18.071s-7.529-18.071-18.071-18.071c-10.542 0-18.071 7.529-18.071 18.071s7.529 18.071 18.071 18.071zM602.354 607.626c10.542 0 18.071-7.529 18.071-18.071s-7.529-18.071-18.071-18.071c-10.542 0-18.071 7.529-18.071 18.071s7.529 18.071 18.071 18.071zM483.389 687.437c10.542 0 18.071-7.529 18.071-18.069 0-10.542-7.529-18.071-18.071-18.071s-18.071 7.529-18.071 18.071c0 10.54 9.035 18.069 18.071 18.069zM444.235 333.555h445.742c9.035 0 15.058 6.023 15.058 15.058s-6.023 15.058-15.058 15.058h-18.071v174.683c0 9.035-6.023 15.058-15.058 15.058s-15.058-6.023-15.058-15.058v-174.683h-94.871v243.952c0 9.035-6.023 15.060-15.058 15.060s-15.060-6.025-15.060-15.060v-242.446h-94.869v100.894c0 9.035-6.025 15.058-15.060 15.058s-15.058-6.023-15.058-15.058v-100.894h-91.858v207.812c0 9.034-6.023 15.058-15.058 15.058s-15.060-6.025-15.060-15.058v-207.812h-25.6c-9.035 0-15.058-6.023-15.058-15.058s6.023-16.565 15.058-16.565z" />
<glyph unicode="&#xe906;" glyph-name="linkedin" d="M1023.744-73.143v0.043h0.256v375.552c0 183.723-39.552 325.248-254.336 325.248-103.253 0-172.544-56.661-200.832-110.379h-2.987v93.227h-203.648v-683.648h212.053v338.517c0 89.131 16.896 175.317 127.275 175.317 108.757 0 110.379-101.717 110.379-181.035v-332.843zM16.896 610.505h212.309v-683.648h-212.309zM122.965 950.857c-67.883 0-122.965-55.083-122.965-122.965s55.083-124.117 122.965-124.117 122.965 56.235 122.965 124.117c-0.043 67.883-55.125 122.965-122.965 122.965z" />
<glyph unicode="&#xe907;" glyph-name="instagram" d="M746.811 950.857h-469.624c-152.843 0-277.187-124.344-277.187-277.187v-469.632c0-152.836 124.344-277.179 277.187-277.179h469.632c152.836 0 277.179 124.344 277.179 277.179v469.632c0 152.843-124.344 277.187-277.187 277.187zM511.999 158.866c-154.39 0-279.992 125.601-279.992 279.992s125.601 279.992 279.992 279.992 279.992-125.601 279.992-279.992-125.601-279.992-279.992-279.992zM798.686 652.818c-45.625 0-82.734 37.109-82.734 82.734s37.109 82.742 82.734 82.742 82.742-37.117 82.742-82.742-37.117-82.734-82.742-82.734zM511.999 658.818c-121.281 0-219.961-98.672-219.961-219.961 0-121.281 98.68-219.961 219.961-219.961 121.289 0 219.961 98.68 219.961 219.961 0 121.289-98.672 219.961-219.961 219.961zM798.686 758.256c-12.516 0-22.703-10.187-22.703-22.703s10.187-22.703 22.703-22.703c12.523 0 22.711 10.18 22.711 22.703s-10.187 22.703-22.711 22.703z" />
<glyph unicode="&#xe908;" glyph-name="worldwide-1" d="M512.181 959.89c-204.863 0.030-390.015-122.084-470.649-310.412l-6.382-2.116 2.474-7.422c-106.167-261.847 20.034-560.181 281.88-666.347 61.157-24.797 126.532-37.527 192.526-37.49 282.71-0.042 511.928 229.106 511.97 511.818 0.042 282.71-229.106 511.929-511.819 511.97zM913.705 189.908l-26.287 26.269v61.189c0.030 2.64-0.554 5.251-1.706 7.627l-66.546 132.905v64.226c0 5.703-2.848 11.031-7.593 14.196l-51.189 34.126c-4.012 2.679-8.971 3.534-13.651 2.355l-62.69-15.664-105.296 45.182-14.487 101.492 40.15 40.132h86.185l29.008-43.595c2.619-3.921 6.746-6.585 11.398-7.355l102.379-17.063c2.742-0.461 5.554-0.236 8.19 0.648l94.291 31.431c79.086-151.766 70.626-334.3-22.156-478.1zM843.327 791.749l-27.744-18.495-77.348 15.476-50.182 16.705c-3.070 1.042-6.377 1.175-9.522 0.375l-63.44-15.851-27.814 9.264 20.613 41.225h57.708c2.646-0.002 5.257 0.61 7.627 1.792l59.038 29.519c40.657-21.222 78.059-48.165 111.063-80.009zM325.138 887.661l40.951-27.301c2.013-1.339 4.287-2.235 6.671-2.628l82.688-13.787-8.070-24.144-43.085-14.385c-3.858-1.283-7.132-3.903-9.231-7.388l-49.006-81.664-78.711-47.23-116.030-16.568c-8.41-1.188-14.664-8.383-14.674-16.876v-51.189c0-4.525 1.8-8.864 5-12.064l29.126-29.127v-29.314l-70.982 47.333-25.748 77.244c48.988 111.934 138.776 201.004 251.101 249.088zM276.558 328.213l-77.125 15.443-28.666 57.178v40.099l63.578 63.577 23.529-47.077c2.89-5.786 8.805-9.439 15.271-9.436h109.785l46.223-77.041c3.084-5.134 8.635-8.273 14.624-8.275h47.435l-11.945-59.841-64.601-64.601c-3.206-3.197-5.010-7.535-5.016-12.064v-42.659l-61.428-46.069c-4.295-3.223-6.825-8.281-6.825-13.651v-61.631l-21.227 7.029-29.963 74.942v167.355c0.003 8.109-5.706 15.101-13.651 16.721zM225.266 65.908c-160.881 120.698-228.918 329.245-170.17 521.597l14.179-42.522c1.194-3.599 3.553-6.698 6.706-8.805l85.060-56.701-19.401-19.417c-3.199-3.2-5-7.538-5-12.064v-51.189c-0.002-2.647 0.61-5.259 1.792-7.627l34.126-68.253c2.363-4.713 6.772-8.072 11.945-9.096l71.665-14.315v-156.657c-0.003-2.167 0.41-4.317 1.211-6.331l34.126-85.316c1.869-4.659 5.695-8.263 10.46-9.845l51.189-17.063c1.711-0.58 3.503-0.878 5.307-0.887 9.424 0 17.063 7.641 17.063 17.063v76.785l61.428 46.069c4.295 3.223 6.825 8.281 6.825 13.651v44.125l63.253 63.253c2.378 2.382 4 5.417 4.658 8.719l17.063 85.316c1.848 9.242-4.146 18.23-13.387 20.076-1.099 0.22-2.215 0.331-3.334 0.331h-58.595l-46.223 77.039c-3.084 5.134-8.635 8.273-14.624 8.276h-108.896l-29.315 58.815c-2.455 4.911-7.121 8.34-12.541 9.214-5.418 0.937-10.948-0.851-14.794-4.778l-22.149-22.063v27.062c0 4.527-1.8 8.865-5 12.064l-29.127 29.127v29.332l104.802 14.965c2.25 0.325 4.415 1.098 6.365 2.269l85.316 51.189c2.393 1.437 4.397 3.442 5.835 5.835l47.947 79.907 45.199 15.083c5.105 1.675 9.111 5.679 10.785 10.784l17.063 51.19c2.956 8.948-1.9 18.599-10.848 21.555-0.825 0.273-1.672 0.482-2.53 0.627l-98.762 16.466-17.352 11.569c107.375 34.949 223.673 30.624 328.157-12.2l-31.175-15.561h-64.224c-6.499 0.036-12.452-3.624-15.357-9.436l-34.126-68.252c-4.204-8.433-0.777-18.68 7.657-22.883 0.718-0.358 1.461-0.666 2.221-0.92l51.189-17.063c3.072-1.042 6.377-1.175 9.522-0.375l63.441 15.851 46.479-15.476c0.666-0.238 1.351-0.422 2.048-0.545l85.316-17.063c4.436-0.905 9.052 0.005 12.814 2.525l38.837 25.901c19.113-21.289 36.289-44.238 51.325-68.576l-83.95-27.984-90.895 15.152-30.032 45.047c-3.147 4.719-8.437 7.566-14.112 7.593h-102.377c-4.527 0-8.865-1.8-12.064-5l-51.189-51.189c-3.801-3.798-5.591-9.166-4.829-14.487l17.063-119.442c0.86-5.906 4.742-10.933 10.238-13.258l119.441-51.189c3.421-1.482 7.24-1.787 10.853-0.87l60.933 15.238 37.248-24.879v-59.122c-0.029-2.641 0.556-5.253 1.706-7.627l66.546-132.905v-64.226c0-4.527 1.801-8.865 5-12.064l35.697-35.714c-158.31-211.013-457.708-253.738-668.722-95.428z" />
<glyph unicode="&#xe909;" glyph-name="agreement2-1" d="M989.867 482.133h-51.2c-9.054 0-17.736-3.596-24.137-9.997s-9.997-15.084-9.997-24.136h-68.266v361.301c0.022 6.756-1.299 13.448-3.887 19.689-2.586 6.241-6.388 11.905-11.184 16.663l-99.277 99.277c-4.757 4.797-10.421 8.599-16.662 11.187s-12.935 3.907-19.69 3.883h-463.701c-9.054 0-17.736-3.596-24.136-9.997-6.401-6.401-9.999-15.083-9.999-24.136v-494.933h-68.266c0 9.052-3.596 17.734-9.997 24.136s-15.083 9.997-24.136 9.997h-51.2c-9.053 0-17.735-3.596-24.136-9.997s-9.997-15.084-9.997-24.136v-221.867c0-9.052 3.596-17.734 9.997-24.136s15.083-9.997 24.136-9.997h51.2c8.403 0.042 16.495 3.182 22.727 8.818 6.232 5.638 10.166 13.375 11.048 21.731 39.713-7.73 77.473-23.34 111.053-45.909l-3.602-5.957c-5.477-9.057-8.448-19.405-8.61-29.987-0.164-10.582 2.488-21.018 7.683-30.239s12.746-16.896 21.881-22.24c9.136-5.345 19.526-8.166 30.11-8.174 5.019 0.006 10.018 0.638 14.882 1.877 0-0.171 0-0.341 0-0.53 3.19-12.961 10.623-24.482 21.116-32.734 10.493-8.251 23.442-12.756 36.791-12.799 4.823 0.001 9.63 0.575 14.318 1.706 0.222 0 0.41 0.171 0.632 0.222 0-0.222 0-0.443 0.102-0.648 3.167-12.977 10.593-24.517 21.090-32.777s23.46-12.765 36.817-12.791c3.877 0.095 7.734 0.563 11.52 1.398 2.257-9.93 7.424-18.963 14.841-25.942 7.417-6.978 16.747-11.587 26.797-13.236s20.363-0.263 29.621 3.979c9.257 4.244 17.039 11.151 22.352 19.839l14.746 24.355 50.125-36.71c7.452-5.405 16.223-8.701 25.391-9.541 9.168-0.838 18.393 0.809 26.703 4.772 8.309 3.961 15.398 10.091 20.517 17.742s8.082 16.542 8.575 25.735c0.341 0 0.699 0 1.058 0 7.809-0.048 15.55 1.447 22.781 4.394 7.231 2.949 13.808 7.295 19.357 12.79s9.959 12.031 12.978 19.232c3.019 7.202 4.589 14.927 4.618 22.736 1.501-0.118 3.003-0.341 4.506-0.341 9.773-0.042 19.408 2.324 28.050 6.89 8.643 4.567 16.027 11.192 21.501 19.291 5.473 8.098 8.866 17.42 9.88 27.142s-0.383 19.544-4.068 28.597c5.132 1.606 10.002 3.953 14.456 6.963 12.117 8.068 20.865 20.288 24.595 34.358 3.732 14.071 2.19 29.020-4.337 42.032 23.944 8.831 49.172 13.673 74.685 14.336 0.214-8.896 3.891-17.355 10.252-23.578 6.359-6.223 14.898-9.716 23.796-9.735h51.2c9.052 0 17.734 3.596 24.136 9.997s9.997 15.084 9.997 24.136v221.867c0 9.052-3.596 17.734-9.997 24.136s-15.084 9.997-24.136 9.997zM85.333 209.066h-51.2v221.867h51.2v-221.867zM904.533 259.464c-34.294-0.234-68.135-7.847-99.226-22.323l-238.029 165.717c-6.39 4.507-14.139 6.676-21.94 6.141-7.801-0.534-15.182-3.739-20.897-9.076l-86.869-80.726c-3.698-3.683-8.404-6.189-13.526-7.2-5.12-1.011-10.426-0.481-15.246 1.523s-8.938 5.391-11.833 9.734c-2.896 4.343-4.438 9.447-4.435 14.667-0.092 6.403 2.194 12.611 6.418 17.424l102.707 108.186c8.941 9.106 20.511 15.182 33.083 17.373 12.572 2.193 25.515 0.391 37.010-5.152l112.094-56.32c7.13-3.672 15.037-5.581 23.056-5.565h197.632v-154.402zM778.002 840.533h-61.202v61.201l61.202-61.201zM221.867 925.866h460.8v-85.333c0-9.053 3.596-17.735 9.997-24.136s15.084-9.997 24.136-9.997h85.333v-358.4h-95.232c-2.608-0.038-5.189 0.547-7.526 1.706l-112.144 56.32c-13.030 6.706-27.468 10.217-42.122 10.24-22.282-0.059-43.83-7.968-60.859-22.339-24.714 3.65-49.668 5.413-74.65 5.274-67.346 0-123.904-38.128-151.552-60.81-6.030-4.884-13.572-7.522-21.333-7.458h-14.848v494.933zM264.533 100.846c-2.88 1.739-5.389 4.029-7.385 6.738s-3.436 5.786-4.241 9.052c-0.806 3.267-0.96 6.66-0.452 9.987 0.508 3.325 1.666 6.52 3.408 9.397l32.102 53.163c1.731 2.888 4.020 5.401 6.732 7.393 2.714 1.992 5.797 3.425 9.071 4.212 2.006 0.493 4.062 0.746 6.126 0.75 4.47 0.001 8.862-1.167 12.739-3.389 3.878-2.224 7.107-5.423 9.364-9.279 2.257-3.858 3.466-8.239 3.505-12.708s-1.094-8.871-3.284-12.768l-32.666-53.827c0-0.138-0.136-0.291-0.205-0.427-3.569-5.657-9.21-9.691-15.717-11.242s-13.362-0.492-19.099 2.948zM337.426 56.712c-5.734 3.455-9.879 9.029-11.536 15.515s-0.695 13.365 2.678 19.147c0 0.136 0.205 0.222 0.29 0.358l32.171 53.146c0.17 0.274 0.256 0.581 0.41 0.853l8.362 13.808c1.735 2.882 4.026 5.391 6.739 7.38s5.794 3.42 9.065 4.207c4.917 1.204 10.082 0.922 14.839-0.809s8.896-4.835 11.889-8.918c2.994-4.083 4.71-8.961 4.931-14.020s-1.062-10.069-3.688-14.397l-40.96-67.686c-1.732-2.882-4.020-5.392-6.729-7.385-2.711-1.992-5.789-3.427-9.057-4.22-3.287-0.81-6.703-0.96-10.048-0.442s-6.555 1.695-9.443 3.463h0.086zM410.368 12.442c-5.794 3.534-9.949 9.225-11.549 15.821s-0.515 13.556 3.016 19.354l32.17 53.094c1.732 2.877 4.018 5.383 6.725 7.373s5.781 3.422 9.045 4.214c2.011 0.489 4.074 0.734 6.144 0.734 4.661 0.003 9.231-1.279 13.21-3.704 2.872-1.75 5.37-4.048 7.354-6.764s3.411-5.794 4.204-9.062c0.791-3.268 0.933-6.66 0.414-9.983s-1.687-6.511-3.438-9.381l-32.138-53.163c-3.533-5.79-9.22-9.94-15.812-11.54-6.593-1.6-13.55-0.518-19.345 3.008zM499.474-21.693c-1.138-1.966-2.657-3.686-4.468-5.060-1.811-1.372-3.878-2.368-6.080-2.932s-4.492-0.682-6.741-0.347c-2.247 0.334-4.405 1.115-6.347 2.294s-3.629 2.736-4.962 4.576c-1.333 1.84-2.285 3.928-2.8 6.141-0.516 2.213-0.584 4.507-0.2 6.747 0.382 2.24 1.208 4.381 2.43 6.296l4.37 7.203v0.085l27.699 45.824c2.348 3.866 6.135 6.641 10.53 7.717 4.393 1.075 9.035 0.363 12.902-1.982 1.916-1.163 3.585-2.692 4.911-4.5s2.282-3.859 2.815-6.037c0.532-2.177 0.63-4.438 0.29-6.655-0.342-2.215-1.116-4.342-2.281-6.258l-32.067-53.112zM790.546 162.627c-4.691-2.788-10.119-4.083-15.563-3.714s-10.647 2.384-14.918 5.78l-50.176 36.71c-1.811 1.322-3.865 2.275-6.043 2.804-2.18 0.528-4.441 0.623-6.657 0.276-2.215-0.345-4.34-1.123-6.255-2.291s-3.581-2.699-4.903-4.51c-1.322-1.811-2.275-3.865-2.804-6.045-0.528-2.178-0.622-4.44-0.276-6.656s1.123-4.342 2.291-6.257c1.167-1.913 2.699-3.58 4.51-4.902l50.176-36.677c3.365-2.421 6.954-4.513 10.718-6.246 1.153-1.912 2.673-3.577 4.472-4.898 5.483-4.007 9.152-10.026 10.196-16.737s-0.619-13.561-4.624-19.043c-4.007-5.484-10.026-9.152-16.737-10.198-6.71-1.044-13.561 0.619-19.043 4.624l-13.654 10.019-58.266 42.666c-3.653 2.676-8.218 3.79-12.693 3.098-4.473-0.69-8.49-3.132-11.166-6.785-2.674-3.653-3.789-8.218-3.098-12.693 0.692-4.473 3.132-8.49 6.785-11.166l58.419-42.666c5.467-4.029 9.108-10.063 10.123-16.778 1.017-6.713-0.676-13.555-4.705-19.020-4.027-5.465-10.063-9.108-16.776-10.123-6.713-1.017-13.555 0.676-19.020 4.705l-6.349 4.59c-0.154 0.136-0.291 0.29-0.445 0.41l-29.645 21.317c-1.815 1.315-3.872 2.26-6.052 2.781s-4.443 0.607-6.657 0.253c-2.213-0.353-4.336-1.138-6.246-2.313-1.91-1.173-3.571-2.712-4.886-4.528s-2.26-3.872-2.781-6.053c-0.521-2.18-0.607-4.441-0.255-6.656 0.354-2.213 1.14-4.336 2.314-6.246s2.712-3.571 4.528-4.886l29.576-21.419c3.467-2.616 5.781-6.478 6.451-10.77 0.527-3.328 0.056-6.739-1.355-9.801-1.409-3.062-3.694-5.638-6.565-7.402-2.87-1.766-6.201-2.64-9.569-2.516-3.369 0.124-6.624 1.243-9.358 3.217l-52.547 38.467c4.642 7.902 7.077 16.905 7.054 26.070-0.023 9.163-2.507 18.154-7.19 26.030s-11.394 14.354-19.434 18.752-17.113 6.559-26.271 6.255c-0.484 7.872-2.535 15.566-6.033 22.635-3.498 7.067-8.372 13.365-14.337 18.524s-12.899 9.074-20.397 11.516c-7.499 2.443-15.408 3.363-23.267 2.708-0.056 8.998-2.149 17.869-6.124 25.942s-9.728 15.141-16.827 20.672c-7.099 5.53-15.36 9.38-24.161 11.258-8.801 1.88-17.913 1.739-26.652-0.41-4.432-1.141-8.722-2.784-12.782-4.898-4.33 10.079-11.35 18.771-20.294 25.123-8.942 6.352-19.462 10.119-30.404 10.887s-21.884-1.491-31.628-6.53c-9.743-5.038-17.91-12.664-23.606-22.038l-10.803-17.92c-38.919 25.565-82.583 43.040-128.392 51.387v156.485h117.248c15.612-0.009 30.755 5.334 42.906 15.138 24.166 19.832 73.267 53.128 129.979 53.128 15.854 0 30.72-0.666 44.664-1.877l-80.402-84.685c-10.546-11.697-16.124-27.042-15.549-42.781s7.257-30.637 18.629-41.533c11.371-10.897 26.539-16.937 42.288-16.84 15.751 0.097 30.843 6.322 42.081 17.358l86.341 80.213 244.053-169.915c3.25-2.377 5.891-5.492 7.703-9.087 1.814-3.596 2.747-7.57 2.724-11.598-0.007-4.282-1.078-8.493-3.116-12.259s-4.978-6.966-8.558-9.314l0.086-0.12zM989.867 226.133h-51.2v221.867h51.2v-221.867zM290.133 652.799c0 4.526-1.798 8.868-4.999 12.069s-7.541 4.999-12.067 4.999c-4.528 0-8.868-1.798-12.069-4.999s-4.999-7.542-4.999-12.069c0.025-19.664 6.829-38.719 19.263-53.952 12.436-15.233 29.743-25.714 49.004-29.674v-1.707c0-4.526 1.798-8.868 4.999-12.069s7.541-4.999 12.067-4.999c4.526 0 8.868 1.798 12.069 4.999s4.999 7.542 4.999 12.069v1.707c19.291 3.916 36.633 14.381 49.091 29.623 12.456 15.24 19.261 34.319 19.261 54.003s-6.805 38.763-19.261 54.004c-12.458 15.24-29.8 25.705-49.091 29.623v100.966c9.947-3.517 18.567-10.022 24.677-18.625s9.412-18.883 9.456-29.434c0-4.528 1.798-8.868 4.999-12.069s7.542-4.999 12.069-4.999c4.526 0 8.868 1.798 12.067 4.999 3.201 3.201 5 7.541 5 12.069-0.025 19.664-6.829 38.718-19.264 53.951s-29.741 25.714-49.003 29.675v1.707c0 4.526-1.798 8.867-4.999 12.068s-7.542 4.999-12.069 4.999c-4.526 0-8.866-1.798-12.067-4.999s-4.999-7.542-4.999-12.068v-1.707c-19.291-3.917-36.634-14.383-49.091-29.623-12.458-15.241-19.263-34.32-19.263-54.003s6.805-38.763 19.263-54.004c12.456-15.24 29.8-25.705 49.091-29.623v-100.984c-9.952 3.518-18.572 10.026-24.683 18.632s-9.411 18.89-9.452 29.444zM392.533 652.799c-0.044-10.552-3.346-20.833-9.456-29.434-6.11-8.603-14.73-15.108-24.677-18.625v96.12c9.947-3.518 18.567-10.023 24.677-18.625s9.412-18.884 9.456-29.436zM290.133 789.333c0.044 10.552 3.347 20.831 9.457 29.434 6.109 8.603 14.728 15.108 24.677 18.625v-96.12c-9.949 3.517-18.568 10.022-24.677 18.625s-9.413 18.883-9.457 29.436zM477.867 840.534h153.6c4.526 0 8.866 1.798 12.067 4.999s4.999 7.542 4.999 12.068c0 4.526-1.798 8.867-4.999 12.068s-7.541 4.999-12.067 4.999h-153.6c-4.528 0-8.868-1.798-12.069-4.999s-4.999-7.542-4.999-12.068c0-4.526 1.798-8.867 4.999-12.068s7.541-4.999 12.069-4.999zM477.867 755.199h170.666c4.528 0 8.868 1.798 12.069 4.999s4.999 7.542 4.999 12.069c0 4.526-1.798 8.868-4.999 12.067-3.201 3.201-7.541 5-12.069 5h-170.666c-4.528 0-8.868-1.799-12.069-5-3.201-3.199-4.999-7.541-4.999-12.067s1.798-8.868 4.999-12.069c3.201-3.201 7.541-4.999 12.069-4.999zM477.867 669.867h256c4.526 0 8.866 1.798 12.067 4.999s4.999 7.541 4.999 12.067c0 4.528-1.798 8.868-4.999 12.069s-7.541 4.999-12.067 4.999h-256c-4.528 0-8.868-1.798-12.069-4.999s-4.999-7.541-4.999-12.069c0-4.526 1.798-8.866 4.999-12.067s7.541-4.999 12.069-4.999zM477.867 584.534h256c4.526 0 8.866 1.798 12.067 4.999s4.999 7.542 4.999 12.069c0 4.526-1.798 8.866-4.999 12.067s-7.541 4.999-12.067 4.999h-256c-4.528 0-8.868-1.798-12.069-4.999s-4.999-7.541-4.999-12.067c0-4.526 1.798-8.868 4.999-12.069s7.541-4.999 12.069-4.999z" />
<glyph unicode="&#xe90a;" glyph-name="instagram1" d="M726.546 950.857h-429.090c-164.018 0-297.456-133.438-297.456-297.456v-429.088c0-164.018 133.438-297.456 297.456-297.456h429.088c164.018 0 297.456 133.438 297.456 297.454v429.090c0 164.018-133.438 297.456-297.454 297.456zM944 224.313c0-119.906-97.55-217.456-217.454-217.456h-429.090c-119.906 0-217.456 97.55-217.456 217.454v429.090c0 119.906 97.55 217.456 217.456 217.456h429.088c119.906 0 217.456-97.55 217.456-217.456v-429.088zM512 714.857c-152.188 0-276-123.812-276-276s123.812-276 276-276 276 123.812 276 276-123.812 276-276 276zM512 242.857c-108.074 0-196 87.926-196 196s87.926 196 196 196 196-87.926 196-196-87.926-196-196-196zM832 718.857c0-22.091-17.909-40-40-40s-40 17.909-40 40c0 22.091 17.909 40 40 40s40-17.909 40-40z" />
<glyph unicode="&#xe90b;" glyph-name="twitter" d="M918.784 647.369c41.643 29.568 76.672 66.475 105.216 108.971v0.043c-38.101-16.683-78.635-27.776-120.96-33.152 43.52 25.984 76.757 66.816 92.373 116.011-40.576-24.192-85.376-41.259-133.12-50.816-38.528 41.045-93.44 66.432-153.344 66.432-116.224 0-209.792-94.336-209.792-209.963 0-16.64 1.408-32.64 4.864-47.872-174.507 8.533-328.96 92.16-432.725 219.605-18.091-31.445-28.757-67.413-28.757-106.112 0-72.704 37.419-137.131 93.269-174.464-33.749 0.64-66.816 10.453-94.848 25.856v-2.304c0-102.016 72.747-186.752 168.192-206.293-17.109-4.693-35.712-6.912-55.040-6.912-13.44 0-27.008 0.768-39.723 3.584 27.179-83.115 104.405-144.256 196.139-146.261-71.424-55.851-162.133-89.515-260.309-89.515-17.195 0-33.707 0.768-50.219 2.859 93.013-59.947 203.179-94.208 322.048-94.208 370.475 0 611.925 309.077 596.736 624.512z" />
<glyph unicode="&#xe90c;" glyph-name="growth1-1" d="M1008.97 15.097h-69.074v281.256c0 8.3-6.729 15.029-15.029 15.029s-15.030-6.729-15.030-15.029v-281.256h-117.052v494.706c0 2.762 2.246 5.010 5.009 5.010h107.034c2.761 0 5.009-2.249 5.009-5.010v-153.333c0-8.3 6.73-15.030 15.030-15.030s15.029 6.73 15.029 15.030v153.333c0 19.337-15.73 35.069-35.068 35.069h-107.034c-19.335 0-35.068-15.733-35.068-35.069v-494.709h-49.038v385.331c0 19.337-15.733 35.069-35.069 35.069h-107.032c-19.338 0-35.069-15.733-35.069-35.069v-385.331h-49.038v275.954c0 19.335-15.73 35.068-35.068 35.068h-107.034c-19.335 0-35.068-15.733-35.068-35.068v-131.42c0-8.3 6.729-15.030 15.029-15.030s15.030 6.73 15.030 15.030v131.42c0 2.763 2.249 5.009 5.009 5.009h107.034c2.763 0 5.009-2.246 5.009-5.009v-275.951h-117.052v84.413c0 8.3-6.73 15.029-15.030 15.029s-15.029-6.729-15.029-15.029v-84.413h-49.038v166.574c0 19.335-15.731 35.068-35.068 35.068h-107.032c-19.336 0-35.068-15.733-35.068-35.068v-166.574h-69.075c-8.3 0-15.029-6.73-15.029-15.030s6.729-15.029 15.029-15.029h993.941c8.302 0 15.030 6.729 15.030 15.029s-6.729 15.030-15.030 15.030zM566.576 400.425c0 2.762 2.249 5.010 5.010 5.010h107.032c2.762 0 5.010-2.249 5.010-5.010v-385.331h-117.053v385.331zM114.163 181.67c0 2.761 2.248 5.009 5.010 5.009h107.033c2.763 0 5.009-2.249 5.009-5.009v-166.574h-117.052v166.574zM160.492 396.164c0.823 0 1.654 0.030 2.489 0.087 110.839 7.698 215.070 31.888 309.797 71.896 127.552 53.872 233.149 135.080 314.071 241.489l50.655-35.22c9.98-7.441 25.185 1.502 23.534 13.841l-20.995 209.144c-0.683 8.931-10.128 15.502-18.742 13.043l-203.554-53.016c-12.151-2.741-15.246-20.115-4.793-26.885l51.118-35.541c-10.17-15.98-32.577-47.663-71.649-86.418-5.892-5.848-5.931-15.363-0.085-21.254 5.845-5.894 15.361-5.932 21.254-0.087 60.231 59.746 82.972 103.433 83.91 105.262 3.433 6.697 1.385 14.901-4.793 19.197l-35.77 24.871 154.953 40.357 15.983-159.206-35.8 24.892c-6.704 4.661-15.896 3.118-20.715-3.472-78.748-107.75-183.142-189.612-310.275-243.307-114.177-48.222-226.263-64.464-300.183-69.601-4.318-1.105-5.626 6.824-1.327 7.285 164.672 50.817 302.195 122.257 408.748 212.334 6.34 5.358 7.134 14.841 1.776 21.178-5.356 6.339-14.844 7.137-21.18 1.776-103.445-87.45-237.422-156.946-398.205-206.566-16.697-5.151-26.494-21.345-23.296-38.502 3.040-16.316 16.741-27.578 33.075-27.578z" />
<glyph unicode="&#xe90d;" glyph-name="Arrow-1" d="M50.547 425.634c-19.995 19.995-19.995 52.413 0 72.408l325.835 325.835c19.995 19.995 52.413 19.995 72.408 0s19.995-52.413 0-72.408l-289.631-289.631 289.631-289.631c19.995-19.994 19.995-52.413 0-72.407s-52.413-19.994-72.408 0l-325.835 325.835zM1003.689 410.637h-916.938v102.4h916.938v-102.4z" />
<glyph unicode="&#xe90e;" glyph-name="Arrow-1-1" d="M973.45 402.134c19.994 19.995 19.994 52.413 0 72.408l-325.837 325.835c-19.994 19.995-52.408 19.995-72.407 0-19.994-19.995-19.994-52.413 0-72.408l289.633-289.631-289.633-289.632c-19.994-19.994-19.994-52.413 0-72.407 19.999-19.994 52.413-19.994 72.407 0l325.837 325.835zM20.31 387.138h916.937v102.4h-916.937v-102.4z" />
<glyph unicode="&#xe90f;" glyph-name="save-money-1" d="M525.369 401.145c-1.895 0.41-3.838 0.484-5.758 0.196-19.233 2.239-33.74 18.511-33.773 37.867 0 9.275-7.521 16.796-16.796 16.796-9.276 0-16.797-7.521-16.797-16.796 0.049-32.323 21.668-60.633 52.833-69.188v-16.796c0-9.276 7.521-16.797 16.797-16.797 9.275 0 16.796 7.521 16.796 16.797v15.779c35.972 7.528 60.42 41.032 56.64 77.586-3.789 36.553-34.585 64.332-71.336 64.339-21.062 0-38.137 17.076-38.137 38.137s17.075 38.137 38.137 38.137c21.061 0 38.136-17.076 38.136-38.137 0-9.275 7.521-16.796 16.797-16.796 9.275 0 16.796 7.521 16.796 16.796-0.049 33.938-23.826 63.208-57.033 70.213v15.287c0 9.275-7.521 16.796-16.796 16.796s-16.797-7.521-16.797-16.796v-16.312c-34.659-9.465-56.966-43.115-52.193-78.726s35.159-62.191 71.090-62.184c20.782 0 37.734-16.641 38.111-37.414 0.386-20.775-15.952-38.030-36.717-38.785zM280.408 492.846c0-134.52 109.046-243.566 243.566-243.566s243.566 109.046 243.566 243.566c0 134.52-109.046 243.566-243.566 243.566-134.455-0.148-243.411-109.112-243.566-243.566zM523.975 702.819c115.969 0 209.973-94.004 209.973-209.973s-94.004-209.973-209.973-209.973c-115.969 0-209.973 94.004-209.973 209.973 0.131 115.911 94.062 209.842 209.973 209.973zM850.343 207.871l-131.577-62.168c-18.166 33.791-53.014 55.295-91.363 56.377l-121.464 3.338c-19.233 0.549-38.104 5.421-55.205 14.253l-12.36 6.406c-63.282 32.986-138.71 32.905-201.928-0.213l0.771 28.001c0.254 9.275-7.053 17.001-16.328 17.255l-133.192 3.667c-9.276 0.254-16.993-7.053-17.248-16.33l-8.046-292.283c-0.254-9.275 7.053-17.001 16.329-17.256l133.65-3.665c9.104 0 16.551 7.242 16.797 16.337l0.385 13.983 34.603 18.527c13.581 7.307 29.459 9.047 44.296 4.847l206.627-57.992c0.36-0.107 0.722-0.189 1.091-0.271 14.934-3.125 30.156-4.691 45.411-4.683 32.314-0.016 64.249 6.947 93.62 20.431 0.722 0.328 1.419 0.713 2.083 1.147l299.59 193.784c7.464 4.831 9.875 14.632 5.504 22.374-22.242 39.465-71.574 54.499-112.048 34.135zM96.45-17.964l7.119 258.706 99.607-2.739-7.119-258.714-99.607 2.748zM640.083-13.569c-36.489-16.469-77.242-21.012-116.461-13l-206.070 57.845c-23.193 6.554-48.019 3.838-69.236-7.57l-17.683-9.473 4.733 172.010c56.033 37.267 127.894 41.097 187.567 10.006l12.36-6.406c21.603-11.154 45.427-17.306 69.728-18.010l121.472-3.338c34.118-0.985 63.093-25.277 70.016-58.706l-180.932 4.995c-9.276 0.254-16.993-7.062-17.256-16.33-0.254-9.275 7.062-17.001 16.33-17.256l200.139-5.494c9.096 0.007 16.535 7.249 16.78 16.337 0.206 7.299-0.336 14.606-1.624 21.791l134.955 63.766c0.132 0.058 0.263 0.123 0.394 0.189 19.143 9.686 42.287 6.446 58.034-8.128l-283.245-183.228zM540.771 783.636v159.567c0 9.276-7.521 16.797-16.796 16.797s-16.797-7.521-16.797-16.797v-159.567c0-9.276 7.521-16.797 16.797-16.797 9.275 0 16.796 7.521 16.796 16.797zM666.745 783.635v75.585c0 9.276-7.521 16.797-16.796 16.797s-16.797-7.521-16.797-16.797v-75.585c0-9.275 7.521-16.796 16.797-16.796 9.275 0 16.796 7.521 16.796 16.796zM414.796 783.635v75.585c0 9.276-7.521 16.797-16.796 16.797-9.276 0-16.797-7.521-16.797-16.797v-75.585c0-9.275 7.521-16.796 16.797-16.796 9.275 0 16.796 7.521 16.796 16.796z" />
<glyph unicode="&#xe910;" glyph-name="country1-1" d="M271.9 562.18c-46.641 0-84.58-37.98-84.58-84.64s37.939-84.64 84.58-84.64c46.68 0 84.64 37.98 84.64 84.64s-37.96 84.64-84.64 84.64zM271.9 424.879c-29 0-52.62 23.62-52.62 52.66s23.599 52.659 52.62 52.659c29.039 0 52.66-23.62 52.66-52.659 0-29.041-23.621-52.66-52.66-52.66zM979.68 835.659c-0.020 0.020-0.020 0 0 0-29.18 32.58-72.020 51.24-117.54 51.26h-0.020c-36.58 0-71.439-12.1-98.88-33.78-81.060 55-175.539 84.020-274.080 84.020-130.639 0-253.48-50.88-345.879-143.28-92.401-92.399-143.281-215.24-143.281-345.879 0-130.641 50.88-253.481 143.281-345.88 92.399-92.401 215.219-143.281 345.879-143.281s253.48 50.88 345.88 143.281c92.399 92.399 143.26 215.24 143.26 345.88 0 40.979-5.12 81.779-15.24 121.38 13.339 18.12 25.559 35.78 35.479 52.339 40.060 66.921 32.12 156.9-18.86 213.94zM489.16 905.159c26.44 0 52.54-2.24 78.14-6.64-63.14-80.18-115.8-134.56-227.96-183.060-49.779-21.481-86.899-48.721-116.42-85.4-26.4-8.32-50.14-23.3-68.48-43.8-14.82-16.54-25.98-35.88-33.4-56.6-26.16-2.199-52.66 0.060-80.4 6.94 41.36 209.82 226.74 368.56 448.52 368.56zM380.94 388.759c-20.339-33.879-51.739-73.839-82.099-112.46-6.4-8.16-12.721-16.18-18.801-24-2.14-2.76-4.64-3.98-8.14-3.98-3.4 0-5.96 1.26-8.081 3.98-6.159 7.9-12.539 16.040-19.040 24.3-30.299 38.52-61.619 78.36-81.839 112.141-3.78 6.319-7.020 12.9-9.78 19.66-0.179 0.52-0.399 1.020-0.64 1.521-12.54 31.759-13.88 67.279-4.62 99.479 0.179 0.521 0.34 1.041 0.48 1.581 5.96 19.88 15.94 38.44 29.86 53.999 23.1 25.82 57.22 40.64 93.62 40.64h0.019c36.44 0 70.601-14.82 93.72-40.64 41.94-46.88 48.38-120.979 15.34-176.22zM35.52 504.979c22.54-5.4 44.46-8.12 66.12-8.12 3.66 0 7.3 0.101 10.94 0.261-4.98-30.341-2.58-62.061 7.5-91.48-22.72-30.801-43.8-65.28-63.9-104.5-15.68 46.12-24.2 95.52-24.2 146.88 0 19.281 1.22 38.28 3.54 56.96zM72.020 260.979c20.080 42.18 41.020 78.861 63.521 111.3 21.28-35.5 53.22-76.14 84.119-115.42 6.46-8.219 12.82-16.3 18.94-24.16 8.18-10.519 20.020-16.32 33.321-16.32 13.339 0 25.179 5.801 33.359 16.32 6.040 7.781 12.32 15.761 18.7 23.86 13.381 17.020 26.94 34.28 39.761 51.281 32.64-7.181 68.46-21.201 73.8-48.461 7.1-36.32-39.059-93.38-114.92-142.060-29.101-15.56-47.7-41.581-60.82-65.82-83.26 47.9-150.1 121.3-189.78 209.48zM290.1 36.48c14.54 26.579 29.679 43.18 48.040 52.84 0.399 0.22 0.78 0.44 1.16 0.68 40.7 26.060 74.36 54.94 97.3 83.5 26.46 32.96 37.619 64.76 32.3 91.96-6.479 33.16-34.959 56.721-84.719 70.221 8.919 12.599 17.139 24.9 24.179 36.62 40.060 66.959 32.1 156.94-18.92 213.939-28.76 32.141-70.82 50.721-115.62 51.241 21.48 19.32 47.020 35.159 78.2 48.599 124.36 53.76 181.32 116.54 250.099 205.021 48.781-12.38 95.24-32.84 137.86-60.88-39.88-48.7-50.3-118.62-28.54-178.381-65.74-16.2-143.88-40.639-143.2-107.259 0.301-30.98-17.019-36.66-35.34-42.68-5.359-1.76-10.4-3.42-14.82-5.82-33.7-18.38-43.82-49.080-27.74-84.239 12.8-28 43.58-60.020 82.34-85.641 18.94-12.52 65.94-40.54 93.4-30.24 15.1 5.641 27.281 23.7 40.18 42.82 5.459 8.101 13.9 20.6 19.639 26.341 2.52-5.521 6.641-18.341 10.181-47.241 8.539-69.34 24.74-138.46 50.739-216.64-80.040-68.8-184.060-110.46-297.64-110.46-71.341 0.060-138.86 16.461-199.080 45.701zM946.321 448c0-125.88-51.141-240.020-133.72-322.78-22.68 70.479-37.041 133.519-44.82 196.599-6.28 51.081-15.9 72.7-34.36 77.14-21.679 5.18-37.239-17.86-53.7-42.28-7.2-10.68-19.26-28.561-24.86-30.74-5.559-1.92-30.519 4.22-65.58 27.62-33.5 22.36-60.44 50.12-70.28 72.48-8.5 19.3-4.2 31.86 14.34 41.98 1.86 1.020 5.76 2.3 9.519 3.54 18.78 6.18 57.861 19.020 57.34 73.38-0.439 41.56 55.36 60.28 125.16 77.4 0.12-0.201 0.241-0.42 0.361-0.621 21.359-35.72 53.459-76.559 84.52-116.060 6.321-8.040 12.54-15.94 18.52-23.639 8.179-10.52 20.040-16.32 33.359-16.32 13.38 0 25.24 5.82 33.3 16.3 5.839 7.5 11.919 15.22 18.080 23.040 8.1 10.28 16.26 20.66 24.28 31.020 5.66-28.96 8.54-58.459 8.54-88.059zM971.1 638.139c-20.44-34.159-52.1-74.4-82.72-113.32-6.2-7.859-12.28-15.62-18.221-23.24-2.060-2.66-4.599-3.9-8.019-3.9-3.48 0-6.001 1.22-8.14 3.98-6.021 7.74-12.28 15.7-18.62 23.761-30.42 38.72-61.88 78.74-82.221 112.74-33.080 55.24-26.66 129.34 15.26 176.2 23.14 25.8 57.28 40.6 93.7 40.6h0.020c36.44 0 70.6-14.8 93.72-40.6 41.879-46.899 48.3-121 15.24-176.22zM862.14 811.52c-46.68 0-84.64-37.98-84.64-84.64 0-46.641 37.96-84.581 84.64-84.581 46.639 0 84.58 37.94 84.58 84.581 0 46.66-37.94 84.64-84.58 84.64zM862.14 674.259c-29.041 0-52.66 23.601-52.66 52.621 0 29.039 23.62 52.659 52.66 52.659 29 0 52.62-23.62 52.62-52.659-0.019-29.020-23.62-52.621-52.62-52.621z" />
<glyph unicode="&#xe911;" glyph-name="Vector-6" d="M831.821 330.015c-53.074 53.074-116.244 92.36-185.165 116.142 73.815 50.842 122.312 135.929 122.312 232.141 0 155.33-126.372 281.702-281.7 281.702-155.33 0-281.702-126.372-281.702-281.702 0-96.212 48.497-181.3 122.316-232.141-68.922-23.782-132.091-63.068-185.164-116.142-92.033-92.032-142.718-214.395-142.718-344.55h76.135c0 226.698 184.433 411.131 411.132 411.131 226.701 0 411.133-184.433 411.133-411.131h76.134c0 130.156-50.683 252.518-142.715 344.55zM487.268 472.732c-113.349 0-205.566 92.215-205.566 205.566s92.217 205.566 205.566 205.566c113.349 0 205.565-92.216 205.565-205.566s-92.216-205.566-205.565-205.566z" />
<glyph unicode="&#xe912;" glyph-name="Vector-7" d="M883.174 832h-791.811c-50.381 0-91.363-40.263-91.363-89.76v-538.556c0-49.5 40.982-89.764 91.363-89.764h791.811c50.381 0 91.361 40.264 91.361 89.764v538.556c0 49.497-40.98 89.76-91.361 89.76zM883.174 772.161c4.137 0 8.074-0.843 11.668-2.316l-407.575-347.052-407.579 347.052c3.598 1.471 7.535 2.316 11.673 2.316h791.813zM883.174 173.763h-791.811c-16.803 0-30.455 13.409-30.455 29.921v502.939l406.404-346.037c5.741-4.879 12.849-7.305 19.956-7.305s14.216 2.424 19.956 7.305l406.404 346.037v-502.939c-0.005-16.512-13.655-29.921-30.454-29.921z" />
<glyph unicode="&#xe913;" glyph-name="Vector-8" d="M899.456 325.898c-13.404 0-24.269-10.865-24.269-24.269v-215.501c-0.046-40.202-32.614-72.776-72.812-72.817h-681.021c-40.199 0.041-72.765 32.614-72.813 72.817v632.476c0.047 40.189 32.614 72.766 72.813 72.813h215.5c13.406 0 24.271 10.865 24.271 24.271 0 13.396-10.865 24.271-24.271 24.271h-215.5c-66.992-0.076-121.279-54.363-121.355-121.355v-632.486c0.076-66.99 54.363-121.277 121.355-121.354h681.021c66.99 0.077 121.277 54.364 121.354 121.354v215.511c0 13.404-10.865 24.269-24.274 24.269zM914.115 902.409c-42.655 42.654-111.805 42.654-154.46 0l-433.010-433.010c-2.968-2.968-5.11-6.646-6.229-10.685l-56.942-205.572c-2.342-8.433 0.038-17.454 6.219-23.649 6.191-6.18 15.217-8.561 23.645-6.226l205.574 56.95c4.039 1.121 7.717 3.261 10.685 6.231l433.001 433.018c42.588 42.683 42.588 111.779 0 154.462l-28.483 28.481zM379.528 453.623l354.388 354.395 114.289-114.292-354.394-354.393-114.282 114.29zM356.699 407.813l91.31-91.32-126.304-34.995 34.994 126.316zM908.278 753.787l-25.743-25.741-114.299 114.301 25.748 25.74c23.695 23.693 62.111 23.693 85.801 0l28.493-28.481c23.654-23.721 23.654-62.109 0-85.82z" />
<glyph unicode="&#xe914;" glyph-name="Vector" d="M542.198 316.742c-9.608-5.585-20.59-8.378-30.198-8.378s-20.59 2.793-30.198 8.378l-481.802 298.822v-397.964c0-85.178 67.26-153.6 150.992-153.6h722.013c83.738 0 150.995 68.422 150.995 153.6v397.964l-481.802-298.822zM873.005 832h-722.013c-71.378 0-131.775-51.665-146.874-120.087l507.882-315.578 507.885 315.578c-15.104 68.422-75.501 120.087-146.88 120.087z" />
<glyph unicode="&#xe915;" glyph-name="arrow_set" d="M363.275 348.483c-12.117-12.117-31.766-12.117-43.883 0s-12.118 31.766 0 43.883l43.883-43.883zM496.485 525.576l-21.942 21.942c5.818 5.818 13.712 9.089 21.942 9.089s16.123-3.271 21.942-9.089l-21.942-21.942zM673.578 392.366c12.117-12.117 12.117-31.766 0-43.883s-31.766-12.117-43.883 0l43.883 43.883zM319.392 392.366l155.152 155.152 43.883-43.883-155.152-155.152-43.883 43.883zM518.426 547.517l155.152-155.152-43.883-43.883-155.152 155.152 43.883 43.883z" />
<glyph unicode="&#xe916;" glyph-name="arrow" d="M1024 448.614c0-238.592-171.277-451.453-404.509-501.363-116.538-24.934-240.458-8.138-345.906 47.494-101.483 53.542-183.501 141.318-229.983 246.339-48.36 109.238-56.788 234.646-23.808 349.462 31.805 110.767 101.613 208.98 195.32 275.845 195.906 139.804 471.093 121.112 646.636-43.366 102.88-96.398 162.25-233.315 162.25-374.412zM484.598 694.561l-142.954-139.764c-36.202-35.386 18.643-91.318 54.675-56.077l72.128 70.525v-334.208c0-23.734 19.792-43.536 43.482-43.536 23.693 0 43.482 19.814 43.482 43.536v332.534l71.818-71.92c35.693-35.738 91.046 19.67 55.354 55.408l-142.982 143.175c-15.146 15.178-39.67 15.322-55.002 0.327z" />
<glyph unicode="&#xe917;" glyph-name="comment" d="M512 64.992c-20.768 0-51.168 23.36-71.328 25.504-57.504-48.224-117.408-106.272-198.848-136.448-35.552-15.072-66.080-23.808-74.016-14.304-10.656 12.384-26.752 29.568-29.6 34.176 0.16 6.848 8.448 1.44 17.472 11.168 49.152 20.672 80.896 74.016 102.24 139.232-153.952 77.152-257.92 221.888-257.92 388.096 0 247.072 229.248 447.392 512 447.392s512-200.288 512-447.392-229.248-447.424-512-447.424z" />
<glyph unicode="&#xe918;" glyph-name="contrast" d="M149.984 85.984c-199.968 199.936-199.968 524.128 0 724.064 199.936 199.968 524.128 199.968 724.064 0 199.968-199.936 199.968-524.128 0-724.064-199.968-199.968-524.128-199.968-724.064 0zM783.52 719.52l-543.040-543.040c149.984-149.984 393.088-149.984 543.072 0s149.952 393.088-0.032 543.040z" />
<glyph unicode="&#xe919;" glyph-name="clock" d="M512 960c-282.784 0-512-229.248-512-512s229.216-512 512-512 512 229.248 512 512c0 282.752-229.216 512-512 512zM512 64c-212.064 0-384 171.936-384 384s171.936 384 384 384 384-171.936 384-384-171.936-384-384-384zM736 512h-160v224c0 17.664-14.304 32-32 32h-64c-17.696 0-32-14.336-32-32v-320c0-17.696 14.304-32 32-32h256c17.696 0 32 14.304 32 32v64c0 17.696-14.304 32-32 32z" />
<glyph unicode="&#xe91a;" glyph-name="user1" d="M0-64v96c0 143.488 180.768 197.728 419.168 219.584-52.352 32.448-93.44 123.648-114.848 196.48-0.096 0-0.192-0.064-0.32-0.064-2.176 0-48 57.312-48 128 0 62.016-4.416 113.728 32.224 125.44-0.032 0.864-0.224 1.696-0.224 2.56 0 78.624 40.672 147.52 101.984 187.488 15.84 39.52 64.128 68.512 122.016 68.512s106.176-28.992 122.016-68.512c61.312-39.968 101.984-108.864 101.984-187.488 0-0.864-0.192-1.696-0.224-2.56 36.64-11.712 32.224-63.424 32.224-125.44 0-70.688-50.816-128-48-128-0.128 0-0.224 0.064-0.32 0.064-21.408-72.8-62.496-164.032-114.848-196.48 238.4-21.856 419.168-74.080 419.168-219.584v-96h-1024z" />
<glyph unicode="&#xe91b;" glyph-name="facebook-logo" d="M767.965 950.644l-132.79 0.213c-149.185 0-245.595-98.913-245.595-252.008v-116.192h-133.514c-11.537 0-20.88-9.353-20.88-20.891v-168.35c0-11.537 9.353-20.88 20.88-20.88h133.514v-424.8c0-11.537 9.343-20.88 20.88-20.88h174.198c11.537 0 20.88 9.353 20.88 20.88v424.8h156.109c11.537 0 20.88 9.343 20.88 20.88l0.064 168.35c0 5.54-2.205 10.845-6.115 14.765s-9.236 6.125-14.776 6.125h-156.163v98.498c0 47.342 11.282 71.375 72.952 71.375l89.453 0.032c11.527 0 20.869 9.353 20.869 20.88v156.322c0 11.516-9.332 20.859-20.848 20.88z" />
<glyph unicode="&#xe91c;" glyph-name="pencil" d="M965.536 718.656l-10.048-10.048-183.232 183.328 10.016 10.016c0 0 43.872 58.016 106.272 58.016 27.488 0 58.624-11.296 91.168-43.84 107.328-107.328-14.176-197.472-14.176-197.472zM895.328 648.416l-623.968-624.192-271.36-88.224 88.192 271.52v0.096h0.064l623.872 624.16 8.064-8.096M88.32 24.352l135.584 39.008-92.608 98.624-42.976-137.632z" />
<glyph unicode="&#xe91d;" glyph-name="folder" d="M992 576h-960c-17.664 0-32-14.336-32-32l32-512c0-17.696 14.336-32 32-32h896c17.696 0 32 14.304 32 32l32 512c0 17.664-14.304 32-32 32zM992 768h-352l-64 96c0 17.664-14.304 32-32 32h-384c-17.664 0-32-14.336-32-32v-96h-96c-17.664 0-32-14.336-32-32v-64c0-17.664 14.336-32 32-32h960c17.696 0 32 14.336 32 32v64c0 17.664-14.304 32-32 32z" />
<glyph unicode="&#xe91e;" glyph-name="camera" d="M992 768h-176l-48 96c0 17.664-14.304 32-32 32h-448c-17.696 0-32-14.336-32-32l-48-96h-176c-17.664 0-32-14.336-32-32v-704c0-17.696 14.336-32 32-32h960c17.696 0 32 14.304 32 32v704c0 17.664-14.304 32-32 32zM512 128c-141.376 0-256 114.624-256 256s114.624 256 256 256 256-114.624 256-256c0-141.376-114.624-256-256-256zM512 512c-70.688 0-128-57.312-128-128s57.312-128 128-128 128 57.312 128 128-57.312 128-128 128z" />
<glyph unicode="&#xe91f;" glyph-name="search1" d="M1014.88 33.504c12.192-12.192 12.192-31.968 0-44.192l-44.192-44.192c-12.224-12.192-32-12.192-44.192 0l-309.376 309.376c-3.36 3.36-5.6 7.328-7.104 11.552-63.456-46.368-141.376-74.048-226.016-74.048-212.064 0-384 171.936-384 384s171.936 384 384 384c212.064 0 384-171.936 384-384 0-84.64-27.68-162.56-74.048-226.016 4.224-1.504 8.192-3.712 11.552-7.104l309.376-309.376zM384 832c-141.376 0-256-114.624-256-256s114.624-256 256-256 256 114.624 256 256c0 141.376-114.624 256-256 256z" />
<glyph unicode="&#xe920;" glyph-name="dribbble" d="M1013.632 551.072c-6.752 32.864-16.8 65.28-29.888 96.224-12.8 30.368-28.704 59.616-47.232 86.976-18.304 27.104-39.328 52.576-62.464 75.712-23.2 23.2-48.672 44.224-75.744 62.496-27.36 18.528-56.672 34.4-87.008 47.232-30.944 13.024-63.328 23.168-96.224 29.856-33.696 6.912-68.384 10.432-103.072 10.432s-69.376-3.52-103.136-10.432c-32.864-6.688-65.248-16.8-96.192-29.856-30.336-12.832-59.616-28.704-86.976-47.232-27.104-18.272-52.608-39.296-75.744-62.496-23.168-23.136-44.16-48.608-62.464-75.712-18.528-27.328-34.4-56.576-47.232-86.944-13.088-30.944-23.136-63.36-29.888-96.224-6.88-33.696-10.368-68.416-10.368-103.040 0-34.784 3.488-69.504 10.368-103.2 6.752-32.832 16.768-65.248 29.888-96.16 12.832-30.336 28.704-59.68 47.232-87.040 18.304-27.104 39.328-52.544 62.464-75.712 23.168-23.136 48.672-44.128 75.744-62.432 27.36-18.496 56.672-34.4 87.008-47.232 30.944-13.12 63.328-23.104 96.192-29.888 33.728-6.912 68.416-10.4 103.104-10.4s69.376 3.488 103.104 10.432c32.896 6.784 65.28 16.736 96.224 29.888 30.336 12.8 59.616 28.704 87.008 47.232 27.104 18.304 52.576 39.328 75.744 62.432 23.136 23.2 44.16 48.64 62.464 75.712 18.496 27.328 34.4 56.672 47.232 87.040 13.056 30.912 23.136 63.328 29.888 96.16 6.848 33.664 10.336 68.384 10.336 103.168 0 34.624-3.488 69.344-10.368 103.008zM949.12 452.384c-6.304 1.376-154.304 33.184-304.576 14.304-3.072 7.488-6.176 15.008-9.44 22.56-9.056 21.44-18.88 42.624-29.056 63.456 172.672 70.464 242.816 171.84 243.616 173.056 61.376-74.496 98.464-169.632 99.456-273.376zM800.8 776.128c-1.056-1.728-63.36-96.48-228.416-158.304-74.752 137.344-156.864 246.4-163.456 255.072 33.056 8.032 67.584 12.352 103.072 12.352 110.72 0 211.744-41.248 288.8-109.12zM407.296 872.544c-0.032-0.064-0.096-0.096-0.096-0.096s-0.512-0.128-1.312-0.288c0.416 0.128 0.928 0.224 1.408 0.384zM325.44 843.456c5.824-7.808 86.688-117.408 162.368-251.936-209.952-55.776-392.16-53.6-403.712-53.376 28.416 135.424 119.392 247.68 241.344 305.312zM74.752 448.064c0 4.64 0.192 9.184 0.384 13.792 7.68-0.16 223.744-5.056 448.864 62.304 12.576-24.512 24.544-49.44 35.488-74.336-5.824-1.632-11.488-3.328-17.248-5.216-235.968-76.256-355.648-288.576-355.648-288.576s0.16-0.128 0.192-0.192c-69.632 77.44-112.032 179.84-112.032 292.224zM512 10.784c-105.824 0-202.88 37.632-278.528 100.192 5.792-4.672 9.792-7.648 9.792-7.648s83.808 182.816 343.2 273.12c0.928 0.384 1.92 0.64 2.88 0.928 61.536-159.84 86.944-293.792 93.408-331.968-52.512-22.272-110.176-34.624-170.752-34.624zM756.352 85.344c-4.48 26.432-27.744 154.752-85.088 312.352 141.152 22.56 263.456-16.16 272.512-19.136-19.488-121.792-89.248-226.912-187.424-293.216z" />
<glyph unicode="&#xe921;" glyph-name="forrst" d="M957.888-31.104l-423.648 976.992c-3.712 8.576-12.192 14.112-21.536 14.112s-17.824-5.536-21.504-14.080l-425.088-976.992c-3.168-7.328-2.432-15.68 1.92-22.304 4.352-6.592 11.712-10.624 19.616-10.624h360.352v213.376l-127.968 42.656c-17.696 0-32 14.304-32 32s14.304 32 32 32l127.968-42.656v202.624c0 17.696 14.304 32 32 32h64c17.696 0 32-14.304 32-32v-48l95.968 48c17.696 0 32-14.304 32-32s-14.304-32-32-32l-95.968-47.968v-112l159.968 96c17.696 0 32-14.304 32-32s-14.304-32-32-32l-159.968-96v-192.032h360.352c7.936 0 15.296 4 19.616 10.624 4.352 6.592 5.024 15.008 1.92 22.272z" />
<glyph unicode="&#xe922;" glyph-name="feed" d="M842.688-64c-0.8 459.232-401.504 834.528-842.688 835.392v188.608c541.312 0 1024-460.608 1024-1024h-181.312zM687.2-63.936h-181.216c0.608 112.768-56.672 238.976-147.328 333.472-90.144 95.264-249.92 155.296-358.208 154.72v188.544c338.080-7.296 679.872-326.624 686.752-676.736zM128.512 192.096c70.624 0 127.872-57.312 127.872-128 0-70.656-57.248-127.968-127.872-127.968s-127.872 57.312-127.872 127.968c0 70.688 57.248 128 127.872 128z" />
<glyph unicode="&#xe923;" glyph-name="blocked" d="M874.016 85.984c-199.936-199.968-524.128-199.968-724.064 0-199.968 199.936-199.968 524.128 0 724.064 199.936 199.968 524.128 199.968 724.064 0 199.968-199.968 199.968-524.128 0-724.064zM240.48 176.48c134.496-134.496 343.776-147.968 493.728-41.184l-534.912 534.912c-106.784-149.952-93.312-359.2 41.184-493.728zM783.52 719.52c-134.496 134.496-343.776 147.968-493.696 41.184l534.912-534.88c106.752 149.92 93.28 359.2-41.216 493.696z" />
<glyph unicode="&#xe924;" glyph-name="skype" d="M952.64 369.056c4.544 25.664 7.36 51.936 7.36 78.944 0 247.424-200.576 448-448 448-27.008 0-53.28-2.816-78.944-7.36-45.984 44.096-108.32 71.36-177.056 71.36-141.376 0-256-114.624-256-256 0-68.736 27.264-131.072 71.36-177.056-4.544-25.664-7.36-51.936-7.36-78.944 0-247.424 200.576-448 448-448 27.008 0 53.28 2.784 78.944 7.36 45.984-44.096 108.32-71.36 177.056-71.36 141.376 0 256 114.624 256 256 0 68.736-27.264 131.072-71.36 177.056zM709.28 268.672c-17.728-24.128-43.84-43.264-77.728-56.768-33.568-13.408-73.76-20.224-119.456-20.224-54.944 0-100.992 9.312-136.928 27.616-25.696 13.376-46.88 31.392-62.976 53.856-16.256 22.528-24.48 44.896-24.48 66.528 0 13.472 5.344 25.12 15.936 34.72 10.464 9.536 23.904 14.272 39.904 14.272 13.152 0 24.512-3.744 33.696-11.264 8.8-7.264 16.352-17.888 22.432-31.552 6.784-14.976 14.144-27.552 21.952-37.44 7.52-9.632 18.304-17.664 32.096-23.936 13.856-6.304 32.576-9.536 55.552-9.536 31.584 0 57.536 6.496 77.024 19.328 19.040 12.512 28.288 27.552 28.288 45.984 0 14.528-4.832 25.984-14.752 34.912-10.432 9.376-24.16 16.672-40.768 21.696-17.408 5.184-41.024 10.912-70.208 16.736-39.68 8.192-73.376 17.888-100.224 28.832-27.424 11.264-49.536 26.848-65.696 46.272-16.416 19.84-24.736 44.608-24.736 73.824 0 27.808 8.736 52.896 25.984 74.496 17.088 21.504 42.080 38.208 74.24 49.632 31.712 11.328 69.472 17.024 112.192 17.024 34.112 0 64.192-3.808 89.248-11.328 25.216-7.52 46.432-17.76 63.2-30.304 16.768-12.672 29.312-26.144 37.152-40.256 7.904-14.144 11.968-28.32 11.968-41.984 0-13.184-5.28-25.12-15.68-35.552-10.496-10.464-23.68-15.776-39.296-15.776-14.144 0-25.248 3.328-32.928 9.856-7.168 6.112-14.592 15.616-22.816 29.28-9.568 17.44-21.088 31.2-34.336 40.896-12.8 9.44-34.304 14.144-63.84 14.144-27.392 0-49.728-5.28-66.24-15.744-15.968-10.048-23.712-21.6-23.712-35.296 0-8.416 2.496-15.392 7.648-21.408 5.408-6.464 13.088-12 22.784-16.704 10.016-4.832 20.416-8.704 30.784-11.456 10.624-2.848 28.448-7.040 52.896-12.48 30.944-6.432 59.392-13.6 84.544-21.344 25.504-7.872 47.424-17.504 65.44-28.768 18.304-11.456 32.8-26.176 43.136-43.808 10.304-17.696 15.52-39.488 15.52-64.832-0.064-30.24-9.024-58.016-26.816-82.144z" />
<glyph unicode="&#xe925;" glyph-name="gift" d="M928 639.84h-832c-17.696 0-32-14.304-32-32v-288c0-17.696 14.304-32 32-32h32v-320c0-17.696 14.304-32 32-32h704c17.696 0 32 14.304 32 32v320h32c17.696 0 32 14.304 32 32v288c0 17.696-14.304 32-32 32zM448 31.84c0-17.696-14.304-32-32-32h-192c-17.696 0-32 14.304-32 32v256c0 17.696 14.304 32 32 32h192c17.696 0 32-14.304 32-32v-256zM448 415.84c0-17.696-14.304-32-32-32h-256c-17.696 0-32 14.304-32 32v128c0 17.696 14.304 32 32 32h256c17.696 0 32-14.304 32-32v-128zM832 31.84c0-17.696-14.304-32-32-32h-192c-17.696 0-32 14.304-32 32v256c0 17.696 14.304 32 32 32h192c17.696 0 32-14.304 32-32v-256zM896 415.84c0-17.696-14.304-32-32-32h-256c-17.696 0-32 14.304-32 32v128c0 17.696 14.304 32 32 32h256c17.696 0 32-14.304 32-32v-128zM369.888 639.872h294.4c50.464 36.192 98.176 83.296 103.84 134.624 2.752 25.056-2.624 61.76-44 94.432-22.944 18.144-46.24 27.328-69.152 27.328-73.024 0-114.336-89.536-136.672-169.536-26.688 101.984-78.208 233.12-166.688 233.12-25.824 0-51.52-11.168-76.512-33.216-49.28-43.584-54.112-88.896-49.504-119.232 10.336-67.808 78.56-126.080 144.288-167.52zM654.976 819.456c7.072 0 16.192-4.224 26.336-12.288 16.512-12.992 15.584-21.056 15.328-23.712-3.072-28-55.584-72-116.832-108.32 18.016 77.472 47.456 144.32 75.168 144.32zM321.088 867.52c8.032 7.104 19.872 15.552 30.528 15.552 39.616 0 80.352-104 104.096-205.12-74.816 39.872-152.16 96.416-159.072 141.792-0.928 6.272-3.488 23.072 24.448 47.776z" />
<glyph unicode="&#xe926;" glyph-name="cone" d="M987.328 63.552h-950.688c-20.192 0-36.608-15.872-36.608-35.488v-56.672c0-19.616 16.416-35.488 36.608-35.488h950.72c20.256 0 36.64 15.872 36.64 35.488v56.672c-0.032 19.616-16.416 35.488-36.672 35.488zM682.624 576.48h-341.952l-85.088-191.616h512.16zM567.776 925.728c0 0-6.72 34.368-53.088 34.368s-53.632-35.552-53.632-35.552l-92.864-283.872h292.928l-93.344 285.056zM803.264 320.736h-577.184l-88.864-224.736h754.944z" />
<glyph unicode="&#xe927;" glyph-name="winsows" d="M929.536 445.472c-0.224-0.096-0.448-0.224-0.576-0.224 0-0.16 0-0.384 0-0.512-66.304-34.24-127.008-47.84-181.568-47.84-82.592 0-151.104 31.2-203.744 69.728-0.32 0.224-0.736 0.512-0.992 0.8l95.744 362.752c30.272-25.824 98.752-74.144 202.528-74.144 52.256 0 113.312 12.224 183.040 45.568l-94.432-356.128zM300.256 586.56c-0.864 0-1.696 0-2.592 0-49.536 0-108.48-14.368-181.184-46.848l93.376 358.912c70.752 31.584 128.32 44.32 176.32 45.344 0.352 0 0.704 0 1.088 0 28.224 0 53.728-3.68 76.288-9.536 47.232-13.184 115.136-57.696 115.136-57.696v-0.256c-19.456-72.96-77.056-289.152-96.48-361.152-50.688 36.768-105.152 70.368-181.952 71.232zM264.16 499.104c6.144 0.576 12.256 0.768 18.368 0.768 53.888 0 103.072-20.64 138.368-40.448 15.104-8.896 29.376-18.592 43.552-28.224-12.544-47.072-78.656-294.112-98.112-366.336-52.448 38.208-108.032 72.128-188.192 72.128-48.672 0-106.528-12.64-178.112-44.256l94.784 359.744c10.784 4.8 21.312 9.216 31.52 13.248 34.56 13.312 83.776 28.416 137.824 33.376zM726.016 312.8c50.304 0 109.856 10.176 178.944 37.28l-91.072-348.48c-78.528-35.456-141.312-49.568-193.824-49.568-82.976 0-193.568 74.656-193.44 74.56l94.496 359.168c28.768-25.12 95.36-72.96 204.896-72.96z" />
<glyph unicode="&#xe928;" glyph-name="target" d="M992 512h-101.536c-27.040 160.64-153.792 287.2-314.464 314.24v101.76c0 17.696-14.304 32-32 32h-64c-17.696 0-32-14.304-32-32v-101.76c-160.672-27.040-287.424-153.6-314.464-314.24h-101.536c-17.696 0-32-14.304-32-32v-64c0-17.696 14.304-32 32-32h101.536c27.040-160.64 153.792-287.232 314.464-314.24v-101.76c0-17.696 14.304-32 32-32h64c17.696 0 32 14.304 32 32v101.76c160.672 27.040 287.424 153.632 314.464 314.24h101.536c17.696 0 32 14.304 32 32v64c0 17.696-14.304 32-32 32zM759.872 512h-183.872v183.616c89.888-23.2 160.672-93.792 183.872-183.616zM448 695.616v-183.616h-183.904c23.2 89.824 94.016 160.416 183.904 183.616zM264.096 384h183.904v-183.584c-89.888 23.136-160.704 93.728-183.904 183.584zM576 200.416v183.584h183.872c-23.2-89.856-93.984-160.448-183.872-183.584z" />
<glyph unicode="&#xe929;" glyph-name="battery" d="M416 640h-256c-17.696 0-32-14.304-32-32v-320c0-17.696 14.304-32 32-32h448c17.696 0 32 14.304 32 32l-192 320c0 17.696-14.304 32-32 32zM992 640h-96v96c0 17.696-14.304 32-32 32h-832c-17.696 0-32-14.304-32-32v-576c0-17.696 14.304-32 32-32h832c17.696 0 32 14.304 32 32v96h96c17.696 0 32 14.304 32 32v320c0 17.696-14.304 32-32 32zM832 224c0-17.696-14.304-32-32-32h-704c-17.696 0-32 14.304-32 32v448c0 17.696 14.304 32 32 32h704c17.696 0 32-14.304 32-32v-448z" />
<glyph unicode="&#xe92a;" glyph-name="code" d="M0 343.808l321.344-206.624v149.152l-191.328 118.144 191.328 118.144v150.176l-321.344-207.68v-121.312zM389.312 64h110.592l162.048 768h-111.328l-161.312-768zM702.688 672.8v-150.176l191.264-118.144-191.264-118.112v-149.152l321.312 206.592v121.312l-321.312 207.68z" />
<glyph unicode="&#xe92b;" glyph-name="basket, cart, checkout, ecommerce" horiz-adv-x="1344" d="M1264 512h-1184c-4.928 0-9.6-2.272-12.64-6.144s-4.096-8.928-2.912-13.728l128.192-512.544c3.072-10.784 12.512-43.584 47.36-43.584h864c34.976 0 44.32 32.832 47.52 44.128l128 512c1.184 4.768 0.128 9.856-2.912 13.728-3.008 3.872-7.68 6.144-12.608 6.144zM1120.64-11.616c-5.824-20.384-11.84-20.384-16.64-20.384h-864c-4.768 0-10.752 0-16.48 19.872l-123.008 492.128h1143.008l-122.88-491.616zM592 64c8.832 0 16 7.168 16 16v288c0 8.832-7.168 16-16 16s-16-7.168-16-16v-288c0-8.832 7.168-16 16-16zM367.968 64c0.608 0 1.184 0.032 1.824 0.096 8.768 0.992 15.104 8.896 14.112 17.664l-32 288c-0.96 8.8-8.64 15.008-17.696 14.144-8.768-0.992-15.104-8.896-14.112-17.664l32-288c0.896-8.192 7.84-14.24 15.872-14.24zM784 64c8.832 0 16 7.168 16 16v288c0 8.832-7.168 16-16 16s-16-7.168-16-16v-288c0-8.832 7.168-16 16-16zM974.208 64.096c0.64-0.064 1.216-0.096 1.824-0.096 8.032 0 14.976 6.048 15.872 14.24l32 288c0.96 8.768-5.344 16.672-14.112 17.664-9.184 0.896-16.704-5.344-17.696-14.144l-32-288c-0.96-8.768 5.344-16.672 14.112-17.664zM1104 576c3.712 0 7.424 1.28 10.464 3.904 6.688 5.792 7.392 15.872 1.632 22.56l-304 352c-5.792 6.72-15.872 7.392-22.56 1.664-6.688-5.792-7.392-15.872-1.632-22.56l304-352c3.168-3.68 7.616-5.568 12.096-5.568zM570.112 956.384c-6.816 5.536-16.896 4.608-22.496-2.272l-288-352c-5.6-6.816-4.608-16.896 2.24-22.528 2.976-2.4 6.592-3.584 10.144-3.584 4.64 0 9.216 1.984 12.384 5.888l288 352c5.6 6.816 4.576 16.896-2.272 22.496zM1328 640h-128c-8.832 0-16-7.168-16-16s7.168-16 16-16h128c8.832 0 16 7.168 16 16s-7.168 16-16 16zM432 608h512c8.832 0 16 7.168 16 16s-7.168 16-16 16h-512c-8.832 0-16-7.168-16-16s7.168-16 16-16zM16 608h160c8.832 0 16 7.168 16 16s-7.168 16-16 16h-160c-8.832 0-16-7.168-16-16s7.168-16 16-16z" />
<glyph unicode="&#xe92c;" glyph-name="checkmark, tick, approve, submit" d="M927.936 687.008l-68.288 68.288c-12.608 12.576-32.96 12.576-45.536 0l-409.44-409.44-194.752 196.16c-12.576 12.576-32.928 12.576-45.536 0l-68.288-68.288c-12.576-12.608-12.576-32.96 0-45.536l285.568-287.488c12.576-12.576 32.96-12.576 45.536 0l500.736 500.768c12.576 12.544 12.576 32.96 0 45.536z" />
<glyph unicode="&#xe92d;" glyph-name="checkroom" d="M922 162.667l-368 274v40q36 10 62 36t38 61 4 75q-8 42-39 74t-73 42q-48 10-90-7t-68-55-26-84h86q0 26 19 45t45 19 45-19 19-45-19-45-47-19q-16 0-28-12t-12-30v-76l-368-274q-16-12-17-31t11-33 32-14h768q20 0 32 14t11 33-17 31zM256 170.667l256 192 256-192h-512z" />
<glyph unicode="&#xe92e;" glyph-name="verified_user" d="M426 212.667l342 342-60 60-282-280-110 110-60-60zM512 896.667l384-172v-256q0-178-110-325t-274-187q-164 40-274 187t-110 325v256z" />
<glyph unicode="&#xe92f;" glyph-name="person_outline, perm_identity" d="M512 384.667q64 0 140-18t139-60 63-94v-128h-684v128q0 52 63 94t139 60 140 18zM512 768.667q70 0 120-51t50-121-50-120-120-50-120 50-50 120 50 121 120 51zM512 302.667q-88 0-174-33t-86-57v-46h520v46q0 24-86 57t-174 33zM512 686.667q-38 0-64-26t-26-64 26-63 64-25 64 25 26 63-26 64-64 26z" />
<glyph unicode="&#xe930;" glyph-name="warning, report_problem" d="M554 340.667v172h-84v-172h84zM554 170.667v86h-84v-86h84zM42 42.667l470 810 470-810h-940z" />
<glyph unicode="&#xe931;" glyph-name="drive_file_rename_outline" d="M470 84.667l170 172h256v-172h-426zM264 170.667l370 370-52 52-368-370v-52h50zM786 690.667q26-26 26-60t-26-60l-486-486h-172v174q480 478 486 484 26 26 60 26t60-26z" />
<glyph unicode="&#xe932;" glyph-name="attach_file" d="M704 682.667h64v-490q0-98-68-167t-166-69-167 69-69 167v532q0 70 51 121t121 51 120-51 50-121v-448q0-44-31-75t-75-31-76 31-32 75v406h64v-406q0-18 13-30t31-12 30 12 12 30v448q0 44-31 76t-75 32-76-32-32-76v-532q0-70 51-121t121-51 120 51 50 121v490z" />
<glyph unicode="&#xe933;" glyph-name="file_copy" d="M598 426.667h234l-234 234v-234zM640 724.667l256-256v-426q0-34-26-60t-60-26h-470q-34 0-59 26t-25 60v598q0 34 26 59t60 25h298zM682 896.667v-86h-512v-598h-84v598q0 34 25 60t59 26h512z" />
<glyph unicode="&#xe934;" glyph-name="pinterest" d="M525.909 960c-280.704-0.043-429.909-179.883-429.909-375.979 0-90.923 50.816-204.373 132.181-240.341 23.211-10.453 20.139 2.304 40.107 78.677 1.579 6.357 0.768 11.861-4.352 17.792-116.309 134.528-22.699 411.093 245.376 411.093 387.968 0 315.477-536.832 67.499-536.832-63.915 0-111.531 50.176-96.469 112.256 18.261 73.941 54.016 153.429 54.016 206.72 0 134.315-200.107 114.389-200.107-63.573 0-54.997 19.456-92.117 19.456-92.117s-64.384-260.096-76.331-308.693c-20.224-82.261 2.731-215.424 4.736-226.901 1.237-6.315 8.32-8.32 12.288-3.115 6.357 8.32 84.181 119.339 105.984 199.595 7.936 29.227 40.491 147.84 40.491 147.84 21.461-38.741 83.328-71.168 149.248-71.168 196.096 0 337.835 172.373 337.835 386.261-0.683 205.056-176.171 358.485-402.048 358.485z" />
<glyph unicode="&#xe935;" glyph-name="sign-in" horiz-adv-x="878" d="M676.571 438.857c0-9.714-4-18.857-10.857-25.714l-310.857-310.857c-6.857-6.857-16-10.857-25.714-10.857-20 0-36.571 16.571-36.571 36.571v164.571h-256c-20 0-36.571 16.571-36.571 36.571v219.429c0 20 16.571 36.571 36.571 36.571h256v164.571c0 20 16.571 36.571 36.571 36.571 9.714 0 18.857-4 25.714-10.857l310.857-310.857c6.857-6.857 10.857-16 10.857-25.714zM877.714 640v-402.286c0-90.857-73.714-164.571-164.571-164.571h-182.857c-9.714 0-18.286 8.571-18.286 18.286 0 16-7.429 54.857 18.286 54.857h182.857c50.286 0 91.429 41.143 91.429 91.429v402.286c0 50.286-41.143 91.429-91.429 91.429h-164.571c-14.286 0-36.571-2.857-36.571 18.286 0 16-7.429 54.857 18.286 54.857h182.857c90.857 0 164.571-73.714 164.571-164.571z" />
<glyph unicode="&#xe936;" glyph-name="calendar-check-o" horiz-adv-x="951" d="M744.571 400l-292.571-292.571c-7.429-6.857-18.857-6.857-26.286 0l-164.571 164.571c-6.857 7.429-6.857 18.857 0 25.714l26.286 26.286c6.857 6.857 18.286 6.857 25.714 0l125.714-125.714 253.714 253.714c7.429 6.857 18.857 6.857 25.714 0l26.286-26.286c6.857-6.857 6.857-18.286 0-25.714zM73.143 0h804.571v585.143h-804.571v-585.143zM292.571 694.857v164.571c0 10.286-8 18.286-18.286 18.286h-36.571c-10.286 0-18.286-8-18.286-18.286v-164.571c0-10.286 8-18.286 18.286-18.286h36.571c10.286 0 18.286 8 18.286 18.286zM731.429 694.857v164.571c0 10.286-8 18.286-18.286 18.286h-36.571c-10.286 0-18.286-8-18.286-18.286v-164.571c0-10.286 8-18.286 18.286-18.286h36.571c10.286 0 18.286 8 18.286 18.286zM950.857 731.428v-731.429c0-40-33.143-73.143-73.143-73.143h-804.571c-40 0-73.143 33.143-73.143 73.143v731.429c0 40 33.143 73.143 73.143 73.143h73.143v54.857c0 50.286 41.143 91.429 91.429 91.429h36.571c50.286 0 91.429-41.143 91.429-91.429v-54.857h219.429v54.857c0 50.286 41.143 91.429 91.429 91.429h36.571c50.286 0 91.429-41.143 91.429-91.429v-54.857h73.143c40 0 73.143-33.143 73.143-73.143z" />
<glyph unicode="&#xe937;" glyph-name="check-circle-o" horiz-adv-x="878" d="M669.143 486.286l-241.143-241.143c-14.286-14.286-37.143-14.286-51.429 0l-168 168c-14.286 14.286-14.286 37.143 0 51.429l58.286 58.286c14.286 14.286 37.143 14.286 51.429 0l84-84 157.143 157.143c14.286 14.286 37.143 14.286 51.429 0l58.286-58.286c14.286-14.286 14.286-37.143 0-51.429zM749.714 438.857c0 171.429-139.429 310.857-310.857 310.857s-310.857-139.429-310.857-310.857 139.429-310.857 310.857-310.857 310.857 139.429 310.857 310.857zM877.714 438.857c0-242.286-196.571-438.857-438.857-438.857s-438.857 196.571-438.857 438.857 196.571 438.857 438.857 438.857 438.857-196.571 438.857-438.857z" />
<glyph unicode="&#xe938;" glyph-name="check-square-o" horiz-adv-x="955" d="M804.571 419.428v-181.714c0-90.857-73.714-164.571-164.571-164.571h-475.429c-90.857 0-164.571 73.714-164.571 164.571v475.429c0 90.857 73.714 164.571 164.571 164.571h475.429c22.857 0 45.714-4.571 66.857-14.286 5.143-2.286 9.143-7.429 10.286-13.143 1.143-6.286-0.571-12-5.143-16.571l-28-28c-3.429-3.429-8.571-5.714-13.143-5.714-1.714 0-3.429 0.571-5.143 1.143-8.571 2.286-17.143 3.429-25.714 3.429h-475.429c-50.286 0-91.429-41.143-91.429-91.429v-475.429c0-50.286 41.143-91.429 91.429-91.429h475.429c50.286 0 91.429 41.143 91.429 91.429v145.143c0 4.571 1.714 9.143 5.143 12.571l36.571 36.571c4 4 8.571 5.714 13.143 5.714 2.286 0 4.571-0.571 6.857-1.714 6.857-2.857 11.429-9.143 11.429-16.571zM936.571 698.857l-465.143-465.143c-18.286-18.286-46.857-18.286-65.143 0l-245.714 245.714c-18.286 18.286-18.286 46.857 0 65.143l62.857 62.857c18.286 18.286 46.857 18.286 65.143 0l150.286-150.286 369.714 369.714c18.286 18.286 46.857 18.286 65.143 0l62.857-62.857c18.286-18.286 18.286-46.857 0-65.143z" />
<glyph unicode="&#xe939;" glyph-name="check-circle" horiz-adv-x="878" d="M733.714 531.428c0 9.714-3.429 19.429-10.286 26.286l-52 51.429c-6.857 6.857-16 10.857-25.714 10.857s-18.857-4-25.714-10.857l-233.143-232.571-129.143 129.143c-6.857 6.857-16 10.857-25.714 10.857s-18.857-4-25.714-10.857l-52-51.429c-6.857-6.857-10.286-16.571-10.286-26.286s3.429-18.857 10.286-25.714l206.857-206.857c6.857-6.857 16.571-10.857 25.714-10.857 9.714 0 19.429 4 26.286 10.857l310.286 310.286c6.857 6.857 10.286 16 10.286 25.714zM877.714 438.857c0-242.286-196.571-438.857-438.857-438.857s-438.857 196.571-438.857 438.857 196.571 438.857 438.857 438.857 438.857-196.571 438.857-438.857z" />
<glyph unicode="&#xe93a;" glyph-name="check-square" horiz-adv-x="878" d="M391.429 208.571l350.857 350.857c14.286 14.286 14.286 37.143 0 51.429l-58.286 58.286c-14.286 14.286-37.143 14.286-51.429 0l-266.857-266.857-120.571 120.571c-14.286 14.286-37.143 14.286-51.429 0l-58.286-58.286c-14.286-14.286-14.286-37.143 0-51.429l204.571-204.571c14.286-14.286 37.143-14.286 51.429 0zM877.714 713.143v-548.571c0-90.857-73.714-164.571-164.571-164.571h-548.571c-90.857 0-164.571 73.714-164.571 164.571v548.571c0 90.857 73.714 164.571 164.571 164.571h548.571c90.857 0 164.571-73.714 164.571-164.571z" />
<glyph unicode="&#xe93b;" glyph-name="check" d="M954.857 627.428c0-14.286-5.714-28.571-16-38.857l-491.429-491.429c-10.286-10.286-24.571-16-38.857-16s-28.571 5.714-38.857 16l-284.571 284.571c-10.286 10.286-16 24.571-16 38.857s5.714 28.571 16 38.857l77.714 77.714c10.286 10.286 24.571 16 38.857 16s28.571-5.714 38.857-16l168-168.571 374.857 375.429c10.286 10.286 24.571 16 38.857 16s28.571-5.714 38.857-16l77.714-77.714c10.286-10.286 16-24.571 16-38.857z" />
<glyph unicode="&#xe93c;" glyph-name="file-archive-o" horiz-adv-x="878" d="M365.714 731.428v73.143h-73.143v-73.143h73.143zM438.857 658.286v73.143h-73.143v-73.143h73.143zM365.714 585.143v73.143h-73.143v-73.143h73.143zM438.857 512v73.143h-73.143v-73.143h73.143zM838.857 733.714c21.143-21.143 38.857-63.429 38.857-93.714v-658.286c0-30.286-24.571-54.857-54.857-54.857h-768c-30.286 0-54.857 24.571-54.857 54.857v914.286c0 30.286 24.571 54.857 54.857 54.857h512c30.286 0 72.571-17.714 93.714-38.857zM585.143 873.143v-214.857h214.857c-3.429 9.714-8.571 19.429-12.571 23.429l-178.857 178.857c-4 4-13.714 9.143-23.429 12.571zM804.571 0v585.143h-237.714c-30.286 0-54.857 24.571-54.857 54.857v237.714h-73.143v-73.143h-73.143v73.143h-292.571v-877.714h731.429zM446.286 412c48.571-164 61.143-199.429 61.143-199.429 2.857-9.714 4.571-19.429 4.571-29.714 0-63.429-61.714-109.714-146.286-109.714s-146.286 46.286-146.286 109.714c0 10.286 1.714 20 4.571 29.714 0 0 12 35.429 68.571 226.286v73.143h73.143v-73.143h45.143c16.571 0 30.857-10.857 35.429-26.857zM365.714 146.286c40.571 0 73.143 16.571 73.143 36.571s-32.571 36.571-73.143 36.571-73.143-16.571-73.143-36.571 32.571-36.571 73.143-36.571z" />
<glyph unicode="&#xe93d;" glyph-name="file-image-o" horiz-adv-x="878" d="M838.857 733.714c21.143-21.143 38.857-63.429 38.857-93.714v-658.286c0-30.286-24.571-54.857-54.857-54.857h-768c-30.286 0-54.857 24.571-54.857 54.857v914.286c0 30.286 24.571 54.857 54.857 54.857h512c30.286 0 72.571-17.714 93.714-38.857zM585.143 873.143v-214.857h214.857c-3.429 9.714-8.571 19.429-12.571 23.429l-178.857 178.857c-4 4-13.714 9.143-23.429 12.571zM804.571 0v585.143h-237.714c-30.286 0-54.857 24.571-54.857 54.857v237.714h-438.857v-877.714h731.429zM731.429 256v-182.857h-585.143v109.714l109.714 109.714 73.143-73.143 219.429 219.429zM256 365.714c-60.571 0-109.714 49.143-109.714 109.714s49.143 109.714 109.714 109.714 109.714-49.143 109.714-109.714-49.143-109.714-109.714-109.714z" />
<glyph unicode="&#xe93e;" glyph-name="file-excel-o" horiz-adv-x="878" d="M838.857 733.714c21.143-21.143 38.857-63.429 38.857-93.714v-658.286c0-30.286-24.571-54.857-54.857-54.857h-768c-30.286 0-54.857 24.571-54.857 54.857v914.286c0 30.286 24.571 54.857 54.857 54.857h512c30.286 0 72.571-17.714 93.714-38.857zM585.143 873.143v-214.857h214.857c-3.429 9.714-8.571 19.429-12.571 23.429l-178.857 178.857c-4 4-13.714 9.143-23.429 12.571zM804.571 0v585.143h-237.714c-30.286 0-54.857 24.571-54.857 54.857v237.714h-438.857v-877.714h731.429zM245.143 133.714v-60.571h160.571v60.571h-42.857l58.857 92c6.857 10.857 10.286 19.429 12 19.429h1.143c0.571-2.286 1.714-4 2.857-5.714 2.286-4.571 5.714-8 9.714-13.714l61.143-92h-43.429v-60.571h166.286v60.571h-38.857l-109.714 156 111.429 161.143h38.286v61.143h-159.429v-61.143h42.286l-58.857-90.857c-6.857-10.857-12-19.429-12-18.857h-1.143c-0.571 2.286-1.714 4-2.857 5.714-2.286 4-5.143 8-9.714 13.143l-60.571 90.857h43.429v61.143h-165.714v-61.143h38.857l108-155.429-110.857-161.714h-38.857z" />
<glyph unicode="&#xe93f;" glyph-name="file-word-o" horiz-adv-x="878" d="M838.857 733.714c21.143-21.143 38.857-63.429 38.857-93.714v-658.286c0-30.286-24.571-54.857-54.857-54.857h-768c-30.286 0-54.857 24.571-54.857 54.857v914.286c0 30.286 24.571 54.857 54.857 54.857h512c30.286 0 72.571-17.714 93.714-38.857zM585.143 873.143v-214.857h214.857c-3.429 9.714-8.571 19.429-12.571 23.429l-178.857 178.857c-4 4-13.714 9.143-23.429 12.571zM804.571 0v585.143h-237.714c-30.286 0-54.857 24.571-54.857 54.857v237.714h-438.857v-877.714h731.429zM133.143 512v-61.143h40l93.714-377.714h90.857l73.143 277.143c2.857 8.571 4.571 17.143 5.714 26.286 0.571 4.571 1.143 9.143 1.143 13.714h2.286l1.714-13.714c1.714-8 2.286-17.143 5.143-26.286l73.143-277.143h90.857l93.714 377.714h40v61.143h-171.429v-61.143h51.429l-56.571-250.286c-2.286-9.143-3.429-18.857-4-26.286l-1.143-12h-2.286c0 3.429-1.143 8-1.714 12-1.714 7.429-2.857 17.143-5.143 26.286l-82.286 311.429h-65.143l-82.286-311.429c-2.286-9.143-2.857-18.857-4.571-26.286l-2.286-12h-2.286l-1.143 12c-0.571 7.429-1.714 17.143-4 26.286l-56.571 250.286h51.429v61.143h-171.429z" />
<glyph unicode="&#xe940;" glyph-name="file-pdf-o" horiz-adv-x="878" d="M838.857 733.714c21.143-21.143 38.857-63.429 38.857-93.714v-658.286c0-30.286-24.571-54.857-54.857-54.857h-768c-30.286 0-54.857 24.571-54.857 54.857v914.286c0 30.286 24.571 54.857 54.857 54.857h512c30.286 0 72.571-17.714 93.714-38.857zM585.143 873.143v-214.857h214.857c-3.429 9.714-8.571 19.429-12.571 23.429l-178.857 178.857c-4 4-13.714 9.143-23.429 12.571zM804.571 0v585.143h-237.714c-30.286 0-54.857 24.571-54.857 54.857v237.714h-438.857v-877.714h731.429zM510.857 338.857c14.286-11.429 30.286-21.714 48-32 24 2.857 46.286 4 66.857 4 38.286 0 86.857-4.571 101.143-28 4-5.714 7.429-16 1.143-29.714-0.571-0.571-1.143-1.714-1.714-2.286v-0.571c-1.714-10.286-10.286-21.714-40.571-21.714-36.571 0-92 16.571-140 41.714-79.429-8.571-162.857-26.286-224-47.429-58.857-100.571-104-149.714-138.286-149.714-5.714 0-10.857 1.143-16 4l-13.714 6.857c-1.714 0.571-2.286 1.714-3.429 2.857-2.857 2.857-5.143 9.143-3.429 20.571 5.714 26.286 36.571 70.286 107.429 107.429 4.571 2.857 10.286 1.143 13.143-3.429 0.571-0.571 1.143-1.714 1.143-2.286 17.714 29.143 38.286 66.286 61.143 112.571 25.714 51.429 45.714 101.714 59.429 149.714-18.286 62.286-24 126.286-13.714 164 4 14.286 12.571 22.857 24 22.857h12.571c8.571 0 15.429-2.857 20-8.571 6.857-8 8.571-20.571 5.143-38.857-0.571-1.714-1.143-3.429-2.286-4.571 0.571-1.714 0.571-2.857 0.571-4.571v-17.143c-0.571-36-1.143-70.286-8-109.714 20-60 49.714-108.571 83.429-136zM181.714 104c17.143 8 41.714 32.571 78.286 90.286-42.857-33.143-69.714-70.857-78.286-90.286zM409.143 629.714c-5.714-16-5.714-43.429-1.143-75.429 1.714 9.143 2.857 17.714 4 25.143 1.143 9.714 2.857 17.714 4 24.571 0.571 1.714 1.143 2.857 2.286 4.571-0.571 0.571-0.571 1.714-1.143 2.857-0.571 10.286-4 16.571-7.429 20.571 0-1.143-0.571-1.714-0.571-2.286zM338.286 252c50.286 20 106.286 36 162.286 46.286-5.714 4.571-11.429 8.571-16.571 13.143-28 24.571-53.143 58.857-72.571 100.571-10.857-34.857-26.857-72-47.429-112.571-8.571-16-17.143-32-25.714-47.429zM707.429 261.143c-2.857 2.857-17.714 13.714-80 13.714 28-10.286 53.714-16 70.857-16 5.143 0 8 0 10.286 0.571 0 0.571-0.571 1.143-1.143 1.714z" />
<glyph unicode="&#xe941;" glyph-name="copy" d="M969.143 731.428c30.286 0 54.857-24.571 54.857-54.857v-694.857c0-30.286-24.571-54.857-54.857-54.857h-548.571c-30.286 0-54.857 24.571-54.857 54.857v164.571h-310.857c-30.286 0-54.857 24.571-54.857 54.857v384c0 30.286 17.714 72.571 38.857 93.714l233.143 233.143c21.143 21.143 63.429 38.857 93.714 38.857h237.714c30.286 0 54.857-24.571 54.857-54.857v-187.429c22.286 13.143 50.857 22.857 73.143 22.857h237.714zM658.286 609.714l-170.857-170.857h170.857v170.857zM292.571 829.143l-170.857-170.857h170.857v170.857zM404.571 459.428l180.571 180.571v237.714h-219.429v-237.714c0-30.286-24.571-54.857-54.857-54.857h-237.714v-365.714h292.571v146.286c0 30.286 17.714 72.571 38.857 93.714zM950.857 0v658.286h-219.429v-237.714c0-30.286-24.571-54.857-54.857-54.857h-237.714v-365.714h512z" />
<glyph unicode="&#xe942;" glyph-name="file-text" horiz-adv-x="878" d="M838.857 678.857c5.714-5.714 10.857-12.571 16-20.571h-269.714v269.714c8-5.143 14.857-10.286 20.571-16zM566.857 585.143h310.857v-603.429c0-30.286-24.571-54.857-54.857-54.857h-768c-30.286 0-54.857 24.571-54.857 54.857v914.286c0 30.286 24.571 54.857 54.857 54.857h457.143v-310.857c0-30.286 24.571-54.857 54.857-54.857zM658.286 164.571v36.571c0 10.286-8 18.286-18.286 18.286h-402.286c-10.286 0-18.286-8-18.286-18.286v-36.571c0-10.286 8-18.286 18.286-18.286h402.286c10.286 0 18.286 8 18.286 18.286zM658.286 310.857v36.571c0 10.286-8 18.286-18.286 18.286h-402.286c-10.286 0-18.286-8-18.286-18.286v-36.571c0-10.286 8-18.286 18.286-18.286h402.286c10.286 0 18.286 8 18.286 18.286zM658.286 457.143v36.571c0 10.286-8 18.286-18.286 18.286h-402.286c-10.286 0-18.286-8-18.286-18.286v-36.571c0-10.286 8-18.286 18.286-18.286h402.286c10.286 0 18.286 8 18.286 18.286z" />
<glyph unicode="&#xe943;" glyph-name="quill" d="M0-64c128 384 463 1024 1024 1024-263-211-384-704-576-704s-192 0-192 0l-192-320h-64z" />
<glyph unicode="&#xe944;" glyph-name="pen" d="M1018.17 668.11l-286.058 286.058c-9.334 9.334-21.644 7.234-27.356-4.666l-38.354-79.904 267.198-267.198 79.904 38.354c11.9 5.712 14 18.022 4.666 27.356zM615.384 824.616l-263.384-21.95c-17.5-2.166-32.080-5.898-37.090-28.752-0.006-0.024-0.012-0.042-0.018-0.066-71.422-343.070-314.892-677.848-314.892-677.848l57.374-57.374 271.986 271.99c-5.996 12.53-9.36 26.564-9.36 41.384 0 53.020 42.98 96 96 96s96-42.98 96-96-42.98-96-96-96c-14.82 0-28.852 3.364-41.384 9.36l-271.988-271.986 57.372-57.374c0 0 334.778 243.47 677.848 314.892 0.024 0.006 0.042 0.012 0.066 0.018 22.854 5.010 26.586 19.59 28.752 37.090l21.95 263.384-273.232 273.232z" />
<glyph unicode="&#xe945;" glyph-name="image" d="M959.884 832c0.040-0.034 0.082-0.076 0.116-0.116v-767.77c-0.034-0.040-0.076-0.082-0.116-0.116h-895.77c-0.040 0.034-0.082 0.076-0.114 0.116v767.772c0.034 0.040 0.076 0.082 0.114 0.114h895.77zM960 896h-896c-35.2 0-64-28.8-64-64v-768c0-35.2 28.8-64 64-64h896c35.2 0 64 28.8 64 64v768c0 35.2-28.8 64-64 64v0zM832 672c0-53.020-42.98-96-96-96s-96 42.98-96 96 42.98 96 96 96 96-42.98 96-96zM896 128h-768v128l224 384 256-320h64l224 192z" />
<glyph unicode="&#xe946;" glyph-name="headphones" d="M288 384h-64v-448h64c17.6 0 32 14.4 32 32v384c0 17.6-14.4 32-32 32zM736 384c-17.602 0-32-14.4-32-32v-384c0-17.6 14.398-32 32-32h64v448h-64zM1024 448c0 282.77-229.23 512-512 512s-512-229.23-512-512c0-61.412 10.83-120.29 30.656-174.848-19.478-33.206-30.656-71.87-30.656-113.152 0-112.846 83.448-206.188 192-221.716v443.418c-31.914-4.566-61.664-15.842-87.754-32.378-5.392 26.718-8.246 54.364-8.246 82.676 0 229.75 186.25 416 416 416s416-186.25 416-416c0-28.314-2.83-55.968-8.22-82.696-26.1 16.546-55.854 27.848-87.78 32.418v-443.44c108.548 15.532 192 108.874 192 221.714 0 41.274-11.178 79.934-30.648 113.138 19.828 54.566 30.648 113.452 30.648 174.866z" />
<glyph unicode="&#xe947;" glyph-name="music" d="M960 960h64v-736c0-88.366-100.29-160-224-160s-224 71.634-224 160c0 88.368 100.29 160 224 160 62.684 0 119.342-18.4 160-48.040v368.040l-512-113.778v-494.222c0-88.366-100.288-160-224-160s-224 71.634-224 160c0 88.368 100.288 160 224 160 62.684 0 119.342-18.4 160-48.040v624.040l576 128z" />
<glyph unicode="&#xe948;" glyph-name="play" d="M981.188 799.892c-143.632 20.65-302.332 32.108-469.186 32.108-166.86 0-325.556-11.458-469.194-32.108-27.53-107.726-42.808-226.75-42.808-351.892 0-125.14 15.278-244.166 42.808-351.89 143.638-20.652 302.336-32.11 469.194-32.11 166.854 0 325.552 11.458 469.186 32.11 27.532 107.724 42.812 226.75 42.812 351.89 0 125.142-15.28 244.166-42.812 351.892zM384.002 256v384l320-192-320-192z" />
<glyph unicode="&#xe949;" glyph-name="bullhorn" d="M1024 530.744c0 200.926-58.792 363.938-131.482 365.226 0.292 0.006 0.578 0.030 0.872 0.030h-82.942c0 0-194.8-146.336-475.23-203.754-8.56-45.292-14.030-99.274-14.030-161.502s5.466-116.208 14.030-161.5c280.428-57.418 475.23-203.756 475.23-203.756h82.942c-0.292 0-0.578 0.024-0.872 0.032 72.696 1.288 131.482 164.298 131.482 365.224zM864.824 220.748c-9.382 0-19.532 9.742-24.746 15.548-12.63 14.064-24.792 35.96-35.188 63.328-23.256 61.232-36.066 143.31-36.066 231.124 0 87.81 12.81 169.89 36.066 231.122 10.394 27.368 22.562 49.266 35.188 63.328 5.214 5.812 15.364 15.552 24.746 15.552 9.38 0 19.536-9.744 24.744-15.552 12.634-14.064 24.796-35.958 35.188-63.328 23.258-61.23 36.068-143.312 36.068-231.122 0-87.804-12.81-169.888-36.068-231.124-10.39-27.368-22.562-49.264-35.188-63.328-5.208-5.806-15.36-15.548-24.744-15.548zM251.812 530.744c0 51.95 3.81 102.43 11.052 149.094-47.372-6.554-88.942-10.324-140.34-10.324-67.058 0-67.058 0-67.058 0l-55.466-94.686v-88.17l55.46-94.686c0 0 0 0 67.060 0 51.398 0 92.968-3.774 140.34-10.324-7.236 46.664-11.048 97.146-11.048 149.096zM368.15 317.828l-127.998 24.51 81.842-321.544c4.236-16.634 20.744-25.038 36.686-18.654l118.556 47.452c15.944 6.376 22.328 23.964 14.196 39.084l-123.282 229.152zM864.824 411.27c-3.618 0-7.528 3.754-9.538 5.992-4.87 5.42-9.556 13.86-13.562 24.408-8.962 23.6-13.9 55.234-13.9 89.078s4.938 65.478 13.9 89.078c4.006 10.548 8.696 18.988 13.562 24.408 2.010 2.24 5.92 5.994 9.538 5.994 3.616 0 7.53-3.756 9.538-5.994 4.87-5.42 9.556-13.858 13.56-24.408 8.964-23.598 13.902-55.234 13.902-89.078 0-33.842-4.938-65.478-13.902-89.078-4.004-10.548-8.696-18.988-13.56-24.408-2.008-2.238-5.92-5.992-9.538-5.992z" />
<glyph unicode="&#xe94a;" glyph-name="connection" horiz-adv-x="1280" d="M640 384c105.87 0 201.87-43.066 271.402-112.598l-90.468-90.468c-46.354 46.356-110.356 75.066-180.934 75.066s-134.578-28.71-180.934-75.066l-90.468 90.468c69.532 69.532 165.532 112.598 271.402 112.598zM187.452 452.548c120.88 120.88 281.598 187.452 452.548 187.452s331.668-66.572 452.55-187.452l-90.51-90.508c-96.706 96.704-225.28 149.96-362.040 149.96-136.762 0-265.334-53.256-362.038-149.962l-90.51 90.51zM988.784 825.562c106.702-45.132 202.516-109.728 284.782-191.996v0l-90.508-90.508c-145.056 145.056-337.92 224.942-543.058 224.942-205.14 0-398-79.886-543.058-224.942l-90.51 90.51c82.268 82.266 178.082 146.862 284.784 191.994 110.504 46.738 227.852 70.438 348.784 70.438s238.278-23.7 348.784-70.438zM576 64c0 35.346 28.654 64 64 64s64-28.654 64-64c0-35.346-28.654-64-64-64s-64 28.654-64 64z" />
<glyph unicode="&#xe94b;" glyph-name="file-text2" d="M917.806 730.924c-22.212 30.292-53.174 65.7-87.178 99.704s-69.412 64.964-99.704 87.178c-51.574 37.82-76.592 42.194-90.924 42.194h-496c-44.112 0-80-35.888-80-80v-864c0-44.112 35.888-80 80-80h736c44.112 0 80 35.888 80 80v624c0 14.332-4.372 39.35-42.194 90.924zM785.374 785.374c30.7-30.7 54.8-58.398 72.58-81.374h-153.954v153.946c22.984-17.78 50.678-41.878 81.374-72.572zM896 16c0-8.672-7.328-16-16-16h-736c-8.672 0-16 7.328-16 16v864c0 8.672 7.328 16 16 16 0 0 495.956 0.002 496 0v-224c0-17.672 14.326-32 32-32h224v-624zM736 128h-448c-17.672 0-32 14.326-32 32s14.328 32 32 32h448c17.674 0 32-14.326 32-32s-14.326-32-32-32zM736 256h-448c-17.672 0-32 14.326-32 32s14.328 32 32 32h448c17.674 0 32-14.326 32-32s-14.326-32-32-32zM736 384h-448c-17.672 0-32 14.326-32 32s14.328 32 32 32h448c17.674 0 32-14.326 32-32s-14.326-32-32-32z" />
<glyph unicode="&#xe94c;" glyph-name="qrcode" d="M320 896h-256v-256h256v256zM384 960v0-384h-384v384h384zM128 832h128v-128h-128zM960 896h-256v-256h256v256zM1024 960v0-384h-384v384h384zM768 832h128v-128h-128zM320 256h-256v-256h256v256zM384 320v0-384h-384v384h384zM128 192h128v-128h-128zM448 960h64v-64h-64zM512 896h64v-64h-64zM448 832h64v-64h-64zM512 768h64v-64h-64zM448 704h64v-64h-64zM512 640h64v-64h-64zM448 576h64v-64h-64zM448 448h64v-64h-64zM512 384h64v-64h-64zM448 320h64v-64h-64zM512 256h64v-64h-64zM448 192h64v-64h-64zM512 128h64v-64h-64zM448 64h64v-64h-64zM512 0h64v-64h-64zM960 448h64v-64h-64zM64 448h64v-64h-64zM128 512h64v-64h-64zM0 512h64v-64h-64zM256 512h64v-64h-64zM320 448h64v-64h-64zM384 512h64v-64h-64zM576 448h64v-64h-64zM640 512h64v-64h-64zM704 448h64v-64h-64zM768 512h64v-64h-64zM832 448h64v-64h-64zM896 512h64v-64h-64zM960 320h64v-64h-64zM576 320h64v-64h-64zM640 384h64v-64h-64zM704 320h64v-64h-64zM832 320h64v-64h-64zM896 384h64v-64h-64zM960 192h64v-64h-64zM576 192h64v-64h-64zM640 256h64v-64h-64zM768 256h64v-64h-64zM832 192h64v-64h-64zM896 256h64v-64h-64zM960 64h64v-64h-64zM640 128h64v-64h-64zM704 64h64v-64h-64zM768 128h64v-64h-64zM832 64h64v-64h-64zM640 0h64v-64h-64zM768 0h64v-64h-64zM896 0h64v-64h-64z" />
<glyph unicode="&#xe94d;" glyph-name="ticket" d="M575.996 640l127.998-127.998-255.994-255.994-127.998 127.998zM1001.526 662.496l-73.516 73.516-32.008-32.008c-16.378-16.38-39.010-26.51-64-26.51-49.988 0-90.514 40.522-90.514 90.51 0 25.002 10.14 47.638 26.534 64.018l31.988 31.986-73.518 73.516c-29.968 29.968-79.008 29.968-108.976 0l-595.040-595.038c-29.966-29.968-29.966-79.010 0-108.976l73.52-73.518 31.962 31.964c16.382 16.406 39.030 26.552 64.044 26.552 49.988 0 90.51-40.524 90.51-90.51 0-25.006-10.14-47.64-26.534-64.022l-31.984-31.986 73.516-73.518c29.966-29.966 79.008-29.966 108.976 0l595.040 595.040c29.964 29.976 29.964 79.016 0 108.984zM448.002 128.004l-256 256 384 384 256-256-384-384z" />
<glyph unicode="&#xe94e;" glyph-name="phone" d="M704 320c-64-64-64-128-128-128s-128 64-192 128-128 128-128 192 64 64 128 128-128 256-192 256-192-192-192-192c0-128 131.5-387.5 256-512s384-256 512-256c0 0 192 128 192 192s-192 256-256 192z" />
<glyph unicode="&#xe94f;" glyph-name="phone-hang-up" d="M1017.378 384.006c8.004-55.482 13.216-131.392-11.664-160.446-41.142-48.044-301.712-48.044-301.712 48.042 0 48.398 42.856 80.134 1.712 128.178-40.472 47.262-113.026 48.030-193.714 48.042-80.686-0.012-153.242-0.78-193.714-48.042-41.142-48.046 1.714-79.78 1.714-128.178 0-96.086-260.57-96.086-301.714-48.044-24.878 29.054-19.668 104.964-11.662 160.446 6.16 37.038 21.724 76.996 71.548 127.994 0 0.002 0.002 0.002 0.002 0.004 74.738 69.742 187.846 126.738 429.826 127.968v0.030c1.344 0 2.664-0.010 4-0.014 1.338 0.004 2.656 0.014 4 0.014v-0.028c241.98-1.23 355.088-58.226 429.826-127.968 0.002-0.002 0.002-0.004 0.002-0.004 49.824-50.996 65.39-90.954 71.55-127.994z" />
<glyph unicode="&#xe950;" glyph-name="envelop" d="M928 832h-832c-52.8 0-96-43.2-96-96v-640c0-52.8 43.2-96 96-96h832c52.8 0 96 43.2 96 96v640c0 52.8-43.2 96-96 96zM398.74 409.628l-270.74-210.892v501.642l270.74-290.75zM176.38 704h671.24l-335.62-252-335.62 252zM409.288 398.302l102.712-110.302 102.71 110.302 210.554-270.302h-626.528l210.552 270.302zM625.26 409.628l270.74 290.75v-501.642l-270.74 210.892z" />
<glyph unicode="&#xe951;" glyph-name="location" d="M512 960c-176.732 0-320-143.268-320-320 0-320 320-704 320-704s320 384 320 704c0 176.732-143.27 320-320 320zM512 448c-106.040 0-192 85.96-192 192s85.96 192 192 192 192-85.96 192-192-85.96-192-192-192z" />
<glyph unicode="&#xe952;" glyph-name="location2" d="M512 960c-176.732 0-320-143.268-320-320 0-320 320-704 320-704s320 384 320 704c0 176.732-143.27 320-320 320zM512 444c-108.248 0-196 87.752-196 196s87.752 196 196 196 196-87.752 196-196-87.752-196-196-196zM388 640c0 68.483 55.517 124 124 124s124-55.517 124-124c0-68.483-55.517-124-124-124s-124 55.517-124 124z" />
<glyph unicode="&#xe953;" glyph-name="calendar" d="M320 576h128v-128h-128zM512 576h128v-128h-128zM704 576h128v-128h-128zM128 192h128v-128h-128zM320 192h128v-128h-128zM512 192h128v-128h-128zM320 384h128v-128h-128zM512 384h128v-128h-128zM704 384h128v-128h-128zM128 384h128v-128h-128zM832 960v-64h-128v64h-448v-64h-128v64h-128v-1024h960v1024h-128zM896 0h-832v704h832v-704z" />
<glyph unicode="&#xe954;" glyph-name="printer" d="M256 896h512v-128h-512v128zM960 704h-896c-35.2 0-64-28.8-64-64v-320c0-35.2 28.794-64 64-64h192v-256h512v256h192c35.2 0 64 28.8 64 64v320c0 35.2-28.8 64-64 64zM128 512c-35.346 0-64 28.654-64 64s28.654 64 64 64 64-28.654 64-64-28.652-64-64-64zM704 64h-384v320h384v-320z" />
<glyph unicode="&#xe955;" glyph-name="sign-out" horiz-adv-x="896" d="M365.714 128c0-16 7.429-54.857-18.286-54.857h-182.857c-90.857 0-164.571 73.714-164.571 164.571v402.286c0 90.857 73.714 164.571 164.571 164.571h182.857c9.714 0 18.286-8.571 18.286-18.286 0-16 7.429-54.857-18.286-54.857h-182.857c-50.286 0-91.429-41.143-91.429-91.429v-402.286c0-50.286 41.143-91.429 91.429-91.429h164.571c14.286 0 36.571 2.857 36.571-18.286zM896 438.857c0-9.714-4-18.857-10.857-25.714l-310.857-310.857c-6.857-6.857-16-10.857-25.714-10.857-20 0-36.571 16.571-36.571 36.571v164.571h-256c-20 0-36.571 16.571-36.571 36.571v219.429c0 20 16.571 36.571 36.571 36.571h256v164.571c0 20 16.571 36.571 36.571 36.571 9.714 0 18.857-4 25.714-10.857l310.857-310.857c6.857-6.857 10.857-16 10.857-25.714z" />
<glyph unicode="&#xe956;" glyph-name="display" d="M0 896v-640h1024v640h-1024zM960 320h-896v512h896v-512zM672 192h-320l-32-128-64-64h512l-64 64z" />
<glyph unicode="&#xe957;" glyph-name="sign-in1" horiz-adv-x="878" d="M676.571 438.857c0-9.714-4-18.857-10.857-25.714l-310.857-310.857c-6.857-6.857-16-10.857-25.714-10.857-20 0-36.571 16.571-36.571 36.571v164.571h-256c-20 0-36.571 16.571-36.571 36.571v219.429c0 20 16.571 36.571 36.571 36.571h256v164.571c0 20 16.571 36.571 36.571 36.571 9.714 0 18.857-4 25.714-10.857l310.857-310.857c6.857-6.857 10.857-16 10.857-25.714zM877.714 640v-402.286c0-90.857-73.714-164.571-164.571-164.571h-182.857c-9.714 0-18.286 8.571-18.286 18.286 0 16-7.429 54.857 18.286 54.857h182.857c50.286 0 91.429 41.143 91.429 91.429v402.286c0 50.286-41.143 91.429-91.429 91.429h-164.571c-14.286 0-36.571-2.857-36.571 18.286 0 16-7.429 54.857 18.286 54.857h182.857c90.857 0 164.571-73.714 164.571-164.571z" />
<glyph unicode="&#xe958;" glyph-name="mobile" d="M736 960h-448c-52.8 0-96-43.2-96-96v-832c0-52.8 43.2-96 96-96h448c52.8 0 96 43.2 96 96v832c0 52.8-43.2 96-96 96zM384 912h256v-32h-256v32zM512 0c-35.346 0-64 28.654-64 64s28.654 64 64 64 64-28.654 64-64-28.654-64-64-64zM768 192h-512v640h512v-640z" />
<glyph unicode="&#xe959;" glyph-name="x" d="M778.411 864h141.141l-308.352-352.427 362.752-479.573h-284.032l-222.464 290.859-254.549-290.859h-141.227l329.813 376.96-347.989 455.040h291.243l201.088-265.856zM728.875 116.48h78.208l-504.832 667.477h-83.925z" />
<glyph unicode="&#xe95e;" glyph-name="box-add" d="M832 896h-640l-192-192v-672c0-17.674 14.326-32 32-32h960c17.672 0 32 14.326 32 32v672l-192 192zM512 128l-320 256h192v192h256v-192h192l-320-256zM154.51 768l64 64h586.978l64-64h-714.978z" />
<glyph unicode="&#xe95f;" glyph-name="box-remove" d="M832 896h-640l-192-192v-672c0-17.674 14.326-32 32-32h960c17.672 0 32 14.326 32 32v672l-192 192zM640 320v-192h-256v192h-192l320 256 320-256h-192zM154.51 768l64 64h586.976l64-64h-714.976z" />
<glyph unicode="&#xe960;" glyph-name="download" d="M512 384l256 256h-192v256h-128v-256h-192zM744.726 488.728l-71.74-71.742 260.080-96.986-421.066-157.018-421.066 157.018 260.080 96.986-71.742 71.742-279.272-104.728v-256l512-192 512 192v256z" />
<glyph unicode="&#xe961;" glyph-name="upload" d="M448 384h128v256h192l-256 256-256-256h192zM640 528v-98.712l293.066-109.288-421.066-157.018-421.066 157.018 293.066 109.288v98.712l-384-144v-256l512-192 512 192v256z" />
<glyph unicode="&#xe96d;" glyph-name="bubbles2" horiz-adv-x="1152" d="M480 960v0c265.096 0 480-173.914 480-388.448s-214.904-388.448-480-388.448c-25.458 0-50.446 1.62-74.834 4.71-103.106-102.694-222.172-121.108-341.166-123.814v25.134c64.252 31.354 116 88.466 116 153.734 0 9.106-0.712 18.048-2.030 26.794-108.558 71.214-177.97 179.988-177.97 301.89 0 214.534 214.904 388.448 480 388.448zM996 89.314c0-55.942 36.314-104.898 92-131.772v-21.542c-103.126 2.318-197.786 18.102-287.142 106.126-21.14-2.65-42.794-4.040-64.858-4.040-95.47 0-183.408 25.758-253.614 69.040 144.674 0.506 281.26 46.854 384.834 130.672 52.208 42.252 93.394 91.826 122.414 147.348 30.766 58.866 46.366 121.582 46.366 186.406 0 10.448-0.45 20.836-1.258 31.168 72.57-59.934 117.258-141.622 117.258-231.676 0-104.488-60.158-197.722-154.24-258.764-1.142-7.496-1.76-15.16-1.76-22.966z" />
<glyph unicode="&#xe971;" glyph-name="user" d="M576 253.388v52.78c70.498 39.728 128 138.772 128 237.832 0 159.058 0 288-192 288s-192-128.942-192-288c0-99.060 57.502-198.104 128-237.832v-52.78c-217.102-17.748-384-124.42-384-253.388h896c0 128.968-166.898 235.64-384 253.388z" />
<glyph unicode="&#xe972;" glyph-name="users" horiz-adv-x="1152" d="M768 189.388v52.78c70.498 39.728 128 138.772 128 237.832 0 159.058 0 288-192 288s-192-128.942-192-288c0-99.060 57.502-198.104 128-237.832v-52.78c-217.102-17.748-384-124.42-384-253.388h896c0 128.968-166.898 235.64-384 253.388zM327.196 164.672c55.31 36.15 124.080 63.636 199.788 80.414-15.054 17.784-28.708 37.622-40.492 59.020-30.414 55.234-46.492 116.058-46.492 175.894 0 86.042 0 167.31 30.6 233.762 29.706 64.504 83.128 104.496 159.222 119.488-16.914 76.48-61.94 126.75-181.822 126.75-192 0-192-128.942-192-288 0-99.060 57.502-198.104 128-237.832v-52.78c-217.102-17.748-384-124.42-384-253.388h279.006c14.518 12.91 30.596 25.172 48.19 36.672z" />
<glyph unicode="&#xe973;" glyph-name="user-plus" d="M384 224c0 151.234 95.874 280.486 230.032 330.2 16.28 36.538 25.968 77.164 25.968 117.8 0 159.058 0 288-192 288s-192-128.942-192-288c0-99.060 57.502-198.104 128-237.832v-52.78c-217.102-17.748-384-124.42-384-253.388h397.306c-8.664 30.53-13.306 62.732-13.306 96zM736 512c-159.058 0-288-128.942-288-288s128.942-288 288-288c159.056 0 288 128.942 288 288s-128.942 288-288 288zM896 192h-128v-128h-64v128h-128v64h128v128h64v-128h128v-64z" />
<glyph unicode="&#xe974;" glyph-name="user-minus" d="M384 224c0 151.234 95.874 280.486 230.032 330.2 16.28 36.538 25.968 77.164 25.968 117.8 0 159.058 0 288-192 288s-192-128.942-192-288c0-99.060 57.502-198.104 128-237.832v-52.78c-217.102-17.748-384-124.42-384-253.388h397.306c-8.664 30.53-13.306 62.732-13.306 96zM736 512c-159.058 0-288-128.942-288-288s128.942-288 288-288c159.056 0 288 128.942 288 288s-128.942 288-288 288zM896 192h-320v64h320v-64z" />
<glyph unicode="&#xe975;" glyph-name="user-check" d="M960 352l-288-288-96 96-64-64 160-160 352 352zM448 192h320v115.128c-67.22 39.2-156.308 66.11-256 74.26v52.78c70.498 39.728 128 138.772 128 237.832 0 159.058 0 288-192 288s-192-128.942-192-288c0-99.060 57.502-198.104 128-237.832v-52.78c-217.102-17.748-384-124.42-384-253.388h448v64z" />
<glyph unicode="&#xe976;" glyph-name="user-tie" d="M320 768c0 106.039 85.961 192 192 192s192-85.961 192-192c0-106.039-85.961-192-192-192s-192 85.961-192 192zM768.078 512h-35.424l-199.104-404.244 74.45 372.244-96 96-96-96 74.45-372.244-199.102 404.244h-35.424c-127.924 0-127.924-85.986-127.924-192v-320h768v320c0 106.014 0 192-127.922 192z" />
<glyph unicode="&#xe977;" glyph-name="quotes-left" d="M225 512c123.712 0 224-100.29 224-224 0-123.712-100.288-224-224-224s-224 100.288-224 224l-1 32c0 247.424 200.576 448 448 448v-128c-85.474 0-165.834-33.286-226.274-93.726-11.634-11.636-22.252-24.016-31.83-37.020 11.438 1.8 23.16 2.746 35.104 2.746zM801 512c123.71 0 224-100.29 224-224 0-123.712-100.29-224-224-224s-224 100.288-224 224l-1 32c0 247.424 200.576 448 448 448v-128c-85.474 0-165.834-33.286-226.274-93.726-11.636-11.636-22.254-24.016-31.832-37.020 11.44 1.8 23.16 2.746 35.106 2.746z" />
<glyph unicode="&#xe978;" glyph-name="quotes-right" d="M800 320c-123.712 0-224 100.29-224 224 0 123.712 100.288 224 224 224s224-100.288 224-224l1-32c0-247.424-200.576-448-448-448v128c85.474 0 165.834 33.286 226.274 93.726 11.634 11.636 22.252 24.016 31.83 37.020-11.438-1.8-23.16-2.746-35.104-2.746zM224 320c-123.71 0-224 100.29-224 224 0 123.712 100.29 224 224 224s224-100.288 224-224l1-32c0-247.424-200.576-448-448-448v128c85.474 0 165.834 33.286 226.274 93.726 11.636 11.636 22.254 24.016 31.832 37.020-11.44-1.8-23.16-2.746-35.106-2.746z" />
<glyph unicode="&#xe986;" glyph-name="search" d="M992.262 88.604l-242.552 206.294c-25.074 22.566-51.89 32.926-73.552 31.926 57.256 67.068 91.842 154.078 91.842 249.176 0 212.078-171.922 384-384 384-212.076 0-384-171.922-384-384s171.922-384 384-384c95.098 0 182.108 34.586 249.176 91.844-1-21.662 9.36-48.478 31.926-73.552l206.294-242.552c35.322-39.246 93.022-42.554 128.22-7.356s31.892 92.898-7.354 128.22zM384 320c-141.384 0-256 114.616-256 256s114.616 256 256 256 256-114.616 256-256-114.614-256-256-256z" />
<glyph unicode="&#xe98f;" glyph-name="lock" d="M592 512h-16v192c0 105.87-86.13 192-192 192h-128c-105.87 0-192-86.13-192-192v-192h-16c-26.4 0-48-21.6-48-48v-480c0-26.4 21.6-48 48-48h544c26.4 0 48 21.6 48 48v480c0 26.4-21.6 48-48 48zM192 704c0 35.29 28.71 64 64 64h128c35.29 0 64-28.71 64-64v-192h-256v192z" />
<glyph unicode="&#xe990;" glyph-name="unlocked" d="M768 896c105.87 0 192-86.13 192-192v-192h-128v192c0 35.29-28.71 64-64 64h-128c-35.29 0-64-28.71-64-64v-192h16c26.4 0 48-21.6 48-48v-480c0-26.4-21.6-48-48-48h-544c-26.4 0-48 21.6-48 48v480c0 26.4 21.6 48 48 48h400v192c0 105.87 86.13 192 192 192h128z" />
<glyph unicode="&#xe991;" glyph-name="wrench" d="M1002.934 142.124l-460.552 394.76c21.448 40.298 33.618 86.282 33.618 135.116 0 159.058-128.942 288-288 288-29.094 0-57.172-4.332-83.646-12.354l166.39-166.39c24.89-24.89 24.89-65.62 0-90.51l-101.49-101.49c-24.89-24.89-65.62-24.89-90.51 0l-166.39 166.39c-8.022-26.474-12.354-54.552-12.354-83.646 0-159.058 128.942-288 288-288 48.834 0 94.818 12.17 135.116 33.62l394.76-460.552c22.908-26.724 62.016-28.226 86.904-3.338l101.492 101.492c24.888 24.888 23.386 63.994-3.338 86.902z" />
<glyph unicode="&#xe992;" glyph-name="equalizer" d="M448 832v16c0 26.4-21.6 48-48 48h-160c-26.4 0-48-21.6-48-48v-16h-192v-128h192v-16c0-26.4 21.6-48 48-48h160c26.4 0 48 21.6 48 48v16h576v128h-576zM256 704v128h128v-128h-128zM832 528c0 26.4-21.6 48-48 48h-160c-26.4 0-48-21.6-48-48v-16h-576v-128h576v-16c0-26.4 21.6-48 48-48h160c26.4 0 48 21.6 48 48v16h192v128h-192v16zM640 384v128h128v-128h-128zM448 208c0 26.4-21.6 48-48 48h-160c-26.4 0-48-21.6-48-48v-16h-192v-128h192v-16c0-26.4 21.6-48 48-48h160c26.4 0 48 21.6 48 48v16h576v128h-576v16zM256 64v128h128v-128h-128z" />
<glyph unicode="&#xe993;" glyph-name="equalizer2" d="M896 512h16c26.4 0 48 21.6 48 48v160c0 26.4-21.6 48-48 48h-16v192h-128v-192h-16c-26.4 0-48-21.6-48-48v-160c0-26.4 21.6-48 48-48h16v-576h128v576zM768 704h128v-128h-128v128zM592 128c26.4 0 48 21.6 48 48v160c0 26.4-21.6 48-48 48h-16v576h-128v-576h-16c-26.4 0-48-21.6-48-48v-160c0-26.4 21.6-48 48-48h16v-192h128v192h16zM448 320h128v-128h-128v128zM272 512c26.4 0 48 21.6 48 48v160c0 26.4-21.6 48-48 48h-16v192h-128v-192h-16c-26.4 0-48-21.6-48-48v-160c0-26.4 21.6-48 48-48h16v-576h128v576h16zM128 704h128v-128h-128v128z" />
<glyph unicode="&#xe9a6;" glyph-name="meter" d="M512 896c282.77 0 512-229.23 512-512 0-192.792-106.576-360.666-264.008-448h-495.984c-157.432 87.334-264.008 255.208-264.008 448 0 282.77 229.23 512 512 512zM801.914 94.086c77.438 77.44 120.086 180.398 120.086 289.914h-90v64h85.038c-7.014 44.998-21.39 88.146-42.564 128h-106.474v64h64.284c-9.438 11.762-19.552 23.096-30.37 33.914-46.222 46.22-101.54 80.038-161.914 99.798v-69.712h-64v85.040c-20.982 3.268-42.36 4.96-64 4.96s-43.018-1.69-64-4.96v-85.040h-64v69.712c-60.372-19.76-115.692-53.576-161.914-99.798-10.818-10.818-20.932-22.152-30.37-33.914h64.284v-64h-106.476c-21.174-39.854-35.552-83.002-42.564-128h85.040v-64h-90c0-109.516 42.648-212.474 120.086-289.914 10.71-10.71 21.924-20.728 33.56-30.086h192.354l36.572 512h54.856l36.572-512h192.354c11.636 9.358 22.852 19.378 33.56 30.086z" />
<glyph unicode="&#xe9b5;" glyph-name="power" d="M384 960l-384-512h384l-256-512 896 640h-512l384 384z" />
<glyph unicode="&#xe9b6;" glyph-name="switch" d="M640 813.412v-135.958c36.206-15.804 69.5-38.408 98.274-67.18 60.442-60.44 93.726-140.8 93.726-226.274s-33.286-165.834-93.726-226.274c-60.44-60.44-140.798-93.726-226.274-93.726s-165.834 33.286-226.274 93.726c-60.44 60.44-93.726 140.8-93.726 226.274s33.286 165.834 93.726 226.274c28.774 28.774 62.068 51.378 98.274 67.182v135.956c-185.048-55.080-320-226.472-320-429.412 0-247.424 200.578-448 448-448 247.424 0 448 200.576 448 448 0 202.94-134.95 374.332-320 429.412zM448 960h128v-512h-128z" />
<glyph unicode="&#xe9b7;" glyph-name="power-cord" d="M1024 677.5l-90.506 90.5-178.746-178.752-101.5 101.502 178.75 178.75-90.5 90.5-178.75-178.75-114.748 114.75-86.626-86.624 512.002-512 86.624 86.622-114.752 114.752 178.752 178.75zM794.040 286.21l-443.824 443.824c-95.818-114.904-204.52-292.454-129.396-445.216l-132.248-132.248c-31.112-31.114-31.112-82.024 0-113.136l14.858-14.858c31.114-31.114 82.026-31.114 113.138 0l132.246 132.244c152.764-75.132 330.318 33.566 445.226 129.39z" />
<glyph unicode="&#xe9ca;" glyph-name="earth" d="M512 960c-282.77 0-512-229.23-512-512s229.23-512 512-512 512 229.23 512 512-229.23 512-512 512zM512-0.002c-62.958 0-122.872 13.012-177.23 36.452l233.148 262.29c5.206 5.858 8.082 13.422 8.082 21.26v96c0 17.674-14.326 32-32 32-112.99 0-232.204 117.462-233.374 118.626-6 6.002-14.14 9.374-22.626 9.374h-128c-17.672 0-32-14.328-32-32v-192c0-12.122 6.848-23.202 17.69-28.622l110.31-55.156v-187.886c-116.052 80.956-192 215.432-192 367.664 0 68.714 15.49 133.806 43.138 192h116.862c8.488 0 16.626 3.372 22.628 9.372l128 128c6 6.002 9.372 14.14 9.372 22.628v77.412c40.562 12.074 83.518 18.588 128 18.588 70.406 0 137.004-16.26 196.282-45.2-4.144-3.502-8.176-7.164-12.046-11.036-36.266-36.264-56.236-84.478-56.236-135.764s19.97-99.5 56.236-135.764c36.434-36.432 85.218-56.264 135.634-56.26 3.166 0 6.342 0.080 9.518 0.236 13.814-51.802 38.752-186.656-8.404-372.334-0.444-1.744-0.696-3.488-0.842-5.224-81.324-83.080-194.7-134.656-320.142-134.656z" />
<glyph unicode="&#xea10;" glyph-name="checkmark1" d="M864 832l-480-480-224 224-160-160 384-384 640 640z" />
<glyph unicode="&#xea13;" glyph-name="enter" d="M384 448h-320v128h320v128l192-192-192-192zM1024 960v-832l-384-192v192h-384v256h64v-192h320v576l256 128h-576v-256h-64v320z" />
<glyph unicode="&#xea14;" glyph-name="exit" d="M768 320v128h-320v128h320v128l192-192zM704 384v-256h-320v-192l-384 192v832h704v-320h-64v256h-512l256-128v-576h256v192z" />
<glyph unicode="&#xea52;" glyph-name="checkbox-checked" d="M896 960h-768c-70.4 0-128-57.6-128-128v-768c0-70.4 57.6-128 128-128h768c70.4 0 128 57.6 128 128v768c0 70.4-57.6 128-128 128zM448 165.49l-237.254 237.256 90.51 90.508 146.744-146.744 306.746 306.746 90.508-90.51-397.254-397.256z" />
<glyph unicode="&#xea53;" glyph-name="checkbox-unchecked" d="M896 960h-768c-70.4 0-128-57.6-128-128v-768c0-70.4 57.6-128 128-128h768c70.4 0 128 57.6 128 128v768c0 70.4-57.6 128-128 128zM896 64h-768v768h768v-768z" />
<glyph unicode="&#xea54;" glyph-name="radio-checked" d="M512 960c-282.77 0-512-229.23-512-512s229.23-512 512-512 512 229.23 512 512-229.23 512-512 512zM512 64c-212.078 0-384 171.922-384 384s171.922 384 384 384c212.078 0 384-171.922 384-384s-171.922-384-384-384zM320 448c0 106.039 85.961 192 192 192s192-85.961 192-192c0-106.039-85.961-192-192-192s-192 85.961-192 192z" />
<glyph unicode="&#xea55;" glyph-name="radio-checked2" d="M512 960c-282.77 0-512-229.23-512-512s229.23-512 512-512 512 229.23 512 512-229.23 512-512 512zM512 320c-70.692 0-128 57.306-128 128 0 70.692 57.308 128 128 128 70.694 0 128-57.308 128-128 0-70.694-57.306-128-128-128z" />
<glyph unicode="&#xea9d;" glyph-name="youtube" d="M1013.8 652.8c0 0-10 70.6-40.8 101.6-39 40.8-82.6 41-102.6 43.4-143.2 10.4-358.2 10.4-358.2 10.4h-0.4c0 0-215 0-358.2-10.4-20-2.4-63.6-2.6-102.6-43.4-30.8-31-40.6-101.6-40.6-101.6s-10.2-82.8-10.2-165.8v-77.6c0-82.8 10.2-165.8 10.2-165.8s10-70.6 40.6-101.6c39-40.8 90.2-39.4 113-43.8 82-7.8 348.2-10.2 348.2-10.2s215.2 0.4 358.4 10.6c20 2.4 63.6 2.6 102.6 43.4 30.8 31 40.8 101.6 40.8 101.6s10.2 82.8 10.2 165.8v77.6c-0.2 82.8-10.4 165.8-10.4 165.8zM406.2 315.2v287.8l276.6-144.4-276.6-143.4z" />
</font>
</defs>
</svg>
